<?xml version="1.0" standalone="no"?>
<!DOCTYPE svg PUBLIC "-//W3C//DTD SVG 1.1//EN" "http://www.w3.org/Graphics/SVG/1.1/DTD/svg11.dtd" >
<svg xmlns="http://www.w3.org/2000/svg" xmlns:xlink="http://www.w3.org/1999/xlink" version="1.1">
<metadata>
Created by FontForge 20170924 at Tue May  1 08:26:46 2007
 By www-data
[c] Copyright 1999, Tobias Frere-Jones. Designed by Tobias Frere-Jones. Produced by The Font Bureau, Inc. All rights reserved.
</metadata>
<defs>
<font id="Interstate-RegularItalic" horiz-adv-x="566" >
  <font-face 
    font-family="Interstate"
    font-weight="500"
    font-style="italic"
    font-stretch="normal"
    units-per-em="1000"
    panose-1="0 0 0 0 0 0 0 0 0 0"
    ascent="800"
    descent="-200"
    x-height="525"
    cap-height="700"
    bbox="-102 -193 1320.13 912"
    underline-thickness="20"
    underline-position="-133"
    stemh="97"
    stemv="88"
    unicode-range="U+0020-FB02"
  />
<missing-glyph horiz-adv-x="500" 
 />
    <glyph glyph-name=".notdef" horiz-adv-x="500" 
 />
    <glyph glyph-name="space" unicode=" " horiz-adv-x="271" 
 />
    <glyph glyph-name="exclam" unicode="!" horiz-adv-x="298" 
d="M225 389l-53 -187h-66l13 187l55 311h106zM188 64c0 -41 -34 -75 -75 -75s-75 34 -75 75s34 76 75 76s75 -35 75 -76z" />
    <glyph glyph-name="quotedbl" unicode="&#x22;" horiz-adv-x="490" 
d="M495 700l-83 -327h-75l33 327h125zM274 700l-83 -327h-75l33 327h125z" />
    <glyph glyph-name="numbersign" unicode="#" horiz-adv-x="696" 
d="M621 160h-120l-28 -160h-98l28 160h-160l-28 -160h-98l28 160h-120l17 95h120l34 190h-120l17 95h120l28 160h98l-28 -160h160l28 160h98l-28 -160h120l-17 -95h-120l-34 -190h120zM420 255l34 190h-160l-34 -190h160z" />
    <glyph glyph-name="dollar" unicode="$" horiz-adv-x="612" 
d="M327 703l17 97h105l-18 -105c71 -18 121 -58 151 -100l-80 -72c-41 47 -94 80 -171 80c-73 0 -110 -37 -110 -87c0 -44 25 -67 133 -110c110 -43 177 -90 177 -193s-53 -208 -224 -216l-17 -97h-105l18 104c-95 21 -147 76 -181 122l85 67c38 -49 96 -96 192 -96
c76 0 123 36 123 104c0 46 -34 78 -139 119c-119 45 -171 90 -171 189c0 105 72 187 215 194z" />
    <glyph glyph-name="percent" unicode="%" horiz-adv-x="975" 
d="M436 513c-10 -133 -93 -237 -203 -237c-97 0 -157 77 -146 196c10 135 92 239 202 239c100 0 157 -79 147 -198zM830 700l-553 -700h-101l553 700h101zM918 226c-10 -133 -93 -237 -203 -237c-96 0 -156 77 -146 196c11 135 92 239 203 239c99 0 156 -79 146 -198z
M348 514c7 79 -17 113 -67 113c-55 0 -101 -56 -107 -155c-6 -79 17 -112 66 -112c56 0 102 58 108 154zM831 227c6 79 -18 113 -67 113c-56 0 -101 -56 -107 -155c-6 -79 17 -112 65 -112c56 0 102 58 109 154z" />
    <glyph glyph-name="ampersand" unicode="&#x26;" horiz-adv-x="676" 
d="M612 292c-29 -63 -63 -118 -101 -163l79 -129h-115l-37 57c-57 -44 -122 -68 -194 -68c-125 0 -205 63 -205 168c0 110 73 183 188 234l-15 24c-29 46 -39 82 -39 128c0 103 84 168 198 168c87 0 152 -30 205 -81l-66 -77c-42 40 -88 62 -142 62c-56 0 -92 -28 -92 -72
c0 -24 8 -49 25 -76l161 -258c24 33 47 73 68 116zM391 133l-118 185c-85 -35 -129 -84 -129 -144c0 -50 38 -91 119 -91c46 0 88 20 128 50z" />
    <glyph glyph-name="quoteright" unicode="&#x2019;" horiz-adv-x="265" 
d="M287 700l-121 -251h-69l59 251h131z" />
    <glyph glyph-name="parenleft" unicode="(" horiz-adv-x="353" 
d="M379 668c-50 -46 -215 -203 -215 -459c0 -133 63 -244 84 -276l-65 -43c-33 37 -125 162 -125 332c0 278 206 445 270 494z" />
    <glyph glyph-name="parenright" unicode=")" horiz-adv-x="353" 
d="M-11 -62c50 46 215 203 215 459c0 133 -63 244 -84 276l65 43c33 -37 125 -162 125 -332c0 -278 -206 -445 -270 -494z" />
    <glyph glyph-name="asterisk" unicode="*" horiz-adv-x="500" 
d="M479 436l-45 -76l-124 89l16 -153h-88l15 154l-125 -90l-45 76l140 63l-139 63l45 76l124 -91l-15 153h88l-16 -151l123 89l45 -76l-142 -63z" />
    <glyph glyph-name="plus" unicode="+" horiz-adv-x="593" 
d="M538 294h-190v-195h-103v195h-190v100h190v195h103v-195h190v-100z" />
    <glyph glyph-name="comma" unicode="," horiz-adv-x="254" 
d="M179 139l-122 -265h-71l62 265h131z" />
    <glyph glyph-name="hyphen" unicode="-" horiz-adv-x="360" 
d="M314 315h-250l18 102h250z" />
    <glyph glyph-name="period" unicode="." horiz-adv-x="254" 
d="M165 68c0 -43 -36 -79 -79 -79s-79 36 -79 79s36 80 79 80s79 -37 79 -80z" />
    <glyph glyph-name="slash" unicode="/" horiz-adv-x="446" 
d="M524 790l-467 -880h-103l467 880h103z" />
    <glyph glyph-name="zero" unicode="0" horiz-adv-x="658" 
d="M627 382c-16 -230 -149 -393 -321 -393c-173 0 -262 131 -245 330c16 230 148 392 320 392c173 0 263 -130 246 -329zM522 385c10 132 -39 224 -149 224c-111 0 -197 -117 -207 -294c-10 -132 39 -224 148 -224c111 0 198 118 208 294z" />
    <glyph glyph-name="one" unicode="1" horiz-adv-x="342" 
d="M325 700l-124 -700h-105l95 536h-124l13 73c79 7 130 29 159 91h86z" />
    <glyph glyph-name="two" unicode="2" horiz-adv-x="629" 
d="M591 534c0 -123 -69 -172 -209 -236c-123 -56 -194 -111 -222 -196h360l-18 -102h-489c41 219 155 308 324 380c111 51 142 80 142 140c0 54 -44 87 -127 87c-79 0 -137 -31 -182 -65l-52 83c65 54 149 86 241 86c141 0 232 -64 232 -177z" />
    <glyph glyph-name="three" unicode="3" horiz-adv-x="608" 
d="M433 364c47 -19 97 -59 97 -140c0 -139 -105 -235 -279 -235c-118 0 -204 54 -253 133l86 62c51 -63 98 -91 183 -91c96 0 151 50 151 132c0 57 -41 88 -124 88h-44l17 102h52c79 0 126 41 126 108c0 48 -36 84 -122 84c-57 0 -106 -24 -147 -58l-61 76
c64 58 141 86 224 86c130 0 218 -67 218 -171c0 -98 -66 -153 -124 -176z" />
    <glyph glyph-name="four" unicode="4" horiz-adv-x="663" 
d="M593 157h-93l-28 -157h-102l27 154h-375l18 100l436 446h120l-80 -450h93zM476 582c-16 -18 -46 -54 -74 -83l-165 -172c-26 -27 -62 -62 -80 -78c24 0 77 1 113 1h144l36 204c7 40 21 102 26 128z" />
    <glyph glyph-name="five" unicode="5" horiz-adv-x="632" 
d="M605 700l-17 -100h-332l-44 -173c26 16 69 34 128 34c148 0 232 -83 232 -207c0 -167 -119 -265 -288 -265c-104 0 -193 30 -265 87l66 85c60 -43 126 -70 205 -70c114 0 171 64 171 153c0 75 -50 115 -143 115c-57 0 -101 -24 -130 -44l-94 40l85 345h426z" />
    <glyph glyph-name="six" unicode="6" horiz-adv-x="632" 
d="M301 -11c-152 0 -252 82 -252 236c0 227 152 473 507 486l-16 -103c-176 -8 -301 -89 -353 -220c38 33 92 55 166 55c139 0 232 -72 232 -208c0 -158 -131 -246 -284 -246zM478 229c0 71 -52 114 -160 114c-89 0 -165 -44 -165 -132c0 -74 50 -122 161 -122
c97 0 164 60 164 140z" />
    <glyph glyph-name="seven" unicode="7" horiz-adv-x="585" 
d="M569 594c-143 -133 -287 -334 -338 -594h-106c46 241 158 434 319 598h-360l18 102h485z" />
    <glyph glyph-name="eight" unicode="8" horiz-adv-x="661" 
d="M501 370c58 -26 99 -78 99 -157c0 -149 -119 -224 -281 -224c-182 0 -272 81 -272 202c0 103 68 168 156 193c-45 24 -70 74 -70 124c0 120 104 203 246 203c158 0 246 -68 246 -181c0 -86 -60 -141 -124 -160zM520 522c0 52 -41 93 -142 93c-94 0 -140 -49 -140 -103
s44 -95 138 -95c88 0 144 38 144 105zM494 211c0 67 -50 113 -173 113c-107 0 -168 -51 -168 -127c0 -67 62 -111 167 -111c108 0 174 43 174 125z" />
    <glyph glyph-name="nine" unicode="9" horiz-adv-x="632" 
d="M362 711c152 0 252 -82 252 -236c0 -227 -152 -473 -507 -486l16 103c176 8 301 89 353 220c-38 -33 -92 -55 -166 -55c-139 0 -232 72 -232 208c0 158 131 246 284 246zM185 471c0 -71 52 -114 160 -114c89 0 165 44 165 132c0 74 -50 122 -161 122
c-97 0 -164 -60 -164 -140z" />
    <glyph glyph-name="colon" unicode=":" horiz-adv-x="254" 
d="M239 456c0 -43 -36 -79 -79 -79s-79 36 -79 79s36 80 79 80s79 -37 79 -80zM170 68c0 -43 -36 -79 -79 -79s-79 36 -79 79s36 80 79 80s79 -37 79 -80z" />
    <glyph glyph-name="semicolon" unicode=";" horiz-adv-x="254" 
d="M239 456c0 -43 -36 -79 -79 -79s-79 36 -79 79s36 80 79 80s79 -37 79 -80zM173 139l-122 -265h-71l62 265h131z" />
    <glyph glyph-name="less" unicode="&#x3c;" horiz-adv-x="414" 
d="M348 47l-291 253v88l291 253v-130l-194 -166l194 -167v-131z" />
    <glyph glyph-name="equal" unicode="=" horiz-adv-x="593" 
d="M513 409h-433v100h433v-100zM513 179h-433v100h433v-100z" />
    <glyph glyph-name="greater" unicode="&#x3e;" horiz-adv-x="414" 
d="M357 300l-291 -253v130l194 166l-194 167v131l291 -253v-88z" />
    <glyph glyph-name="question" unicode="?" horiz-adv-x="567" 
d="M555 541c0 -104 -50 -153 -145 -199c-65 -32 -105 -51 -117 -138h-103c15 130 61 167 156 209c62 27 102 56 102 109s-46 85 -118 85c-65 0 -128 -25 -188 -72l-54 84c70 57 155 92 252 92c137 0 215 -74 215 -170zM294 64c0 -41 -34 -75 -75 -75s-75 34 -75 75
s34 76 75 76s75 -35 75 -76z" />
    <glyph glyph-name="at" unicode="@" horiz-adv-x="836" 
d="M783 360c0 -151 -64 -206 -152 -206c-52 0 -89 26 -107 62c-24 -32 -80 -62 -128 -62c-77 0 -152 44 -152 137c0 86 75 127 161 127c40 0 77 -13 99 -26v51c0 42 -33 59 -93 59c-37 0 -68 -6 -97 -24l-28 49c37 22 83 34 129 34c94 0 156 -39 156 -120v-168
c0 -36 19 -60 66 -60c62 0 88 52 88 148c0 159 -129 293 -303 293c-175 0 -303 -129 -303 -303c0 -175 128 -304 303 -304c45 0 85 7 130 29l24 -53c-57 -26 -97 -34 -154 -34c-209 0 -361 152 -361 361s152 361 361 361c213 0 361 -161 361 -351zM504 270v61
c-20 15 -58 30 -103 30c-57 0 -92 -24 -92 -68c0 -48 34 -79 97 -79c37 0 80 23 98 56z" />
    <glyph glyph-name="A" unicode="A" horiz-adv-x="707" 
d="M613 0h-110l-29 167h-272l-87 -167h-114l376 700h106zM460 260l-32 187c-8 44 -16 96 -18 124c-12 -27 -37 -79 -62 -125l-100 -186h212z" />
    <glyph glyph-name="B" unicode="B" horiz-adv-x="671" 
d="M510 372c51 -22 91 -68 91 -142c0 -148 -110 -230 -268 -230h-288l124 700h244c132 0 213 -59 213 -159c0 -90 -47 -141 -116 -169zM518 525c0 48 -34 79 -114 79h-153l-32 -181h183c76 0 116 42 116 102zM493 227c0 64 -40 101 -123 101h-168l-41 -232h188
c88 0 144 49 144 131z" />
    <glyph glyph-name="C" unicode="C" horiz-adv-x="651" 
d="M642 563l-99 -47c-29 58 -71 92 -141 92c-125 0 -229 -133 -229 -316c0 -127 60 -200 153 -200c67 0 119 35 166 92l76 -66c-60 -81 -143 -129 -248 -129c-148 0 -255 98 -255 288c0 261 159 434 349 434c115 0 192 -57 228 -148z" />
    <glyph glyph-name="D" unicode="D" horiz-adv-x="675" 
d="M640 370c-20 -273 -223 -370 -395 -370h-200l124 700h139c224 0 350 -105 332 -330zM532 373c11 151 -62 225 -229 225h-47l-88 -496h89c139 0 265 88 275 271z" />
    <glyph glyph-name="E" unicode="E" horiz-adv-x="611" 
d="M507 0h-462l123 700h447l-18 -102h-342l-30 -173h197l-18 -102h-197l-39 -221h357z" />
    <glyph glyph-name="F" unicode="F" horiz-adv-x="578" 
d="M598 597h-342l-32 -183h197l-18 -103h-197l-55 -311h-105l123 700h447z" />
    <glyph glyph-name="G" unicode="G" horiz-adv-x="674" 
d="M644 552l-100 -44c-29 64 -72 100 -141 100c-124 0 -231 -130 -231 -319c0 -132 71 -198 163 -198c90 0 149 56 171 157c0 1 1 6 1 6h-116l17 101h222l-12 -66c-35 -209 -142 -301 -294 -301c-153 0 -259 106 -259 297c0 256 162 426 349 426c120 0 194 -59 230 -159z
" />
    <glyph glyph-name="H" unicode="H" horiz-adv-x="710" 
d="M573 0h-105l55 312h-318l-55 -312h-105l123 700h105l-50 -283h318l50 283h105z" />
    <glyph glyph-name="I" unicode="I" horiz-adv-x="297" 
d="M155 0h-105l124 700h105z" />
    <glyph glyph-name="J" unicode="J" horiz-adv-x="605" 
d="M591 700l-75 -424c-35 -200 -116 -287 -273 -287c-146 0 -214 88 -231 196l101 26c16 -72 55 -119 134 -119c92 0 141 54 165 189l74 419h105z" />
    <glyph glyph-name="K" unicode="K" horiz-adv-x="681" 
d="M671 700l-246 -254l168 -446h-111l-137 362l-164 -166l-34 -196h-102l123 700h102l-43 -249c-2 -13 -21 -107 -23 -116c21 26 76 86 105 116l238 249h124z" />
    <glyph glyph-name="L" unicode="L" horiz-adv-x="591" 
d="M495 0h-450l123 700h105l-105 -597h345z" />
    <glyph glyph-name="M" unicode="M" horiz-adv-x="804" 
d="M790 700l-123 -700h-103l68 365c3 19 18 101 20 115c-13 -27 -41 -78 -64 -116l-235 -381l-96 381c-9 37 -20 89 -24 116c-2 -14 -15 -96 -18 -115l-67 -365h-103l123 700h108l87 -368c10 -41 23 -99 27 -126c13 28 47 86 71 126l219 368h110z" />
    <glyph glyph-name="N" unicode="N" horiz-adv-x="710" 
d="M697 700l-124 -700h-96l-204 448c-12 27 -28 63 -35 83c-2 -13 -12 -80 -15 -100l-75 -431h-103l124 700h101l200 -447c12 -26 27 -64 34 -82c2 13 12 80 15 99l75 430h103z" />
    <glyph glyph-name="O" unicode="O" horiz-adv-x="707" 
d="M666 330c-37 -206 -171 -341 -338 -341c-191 0 -296 155 -255 381c38 209 173 341 343 341c188 0 290 -158 250 -381zM559 336c29 163 -39 274 -159 274c-105 0 -193 -95 -220 -246c-29 -161 38 -274 155 -274c111 0 197 94 224 246z" />
    <glyph glyph-name="P" unicode="P" horiz-adv-x="649" 
d="M637 490c-13 -165 -135 -229 -276 -229h-167l-46 -261h-103l124 700h238c140 0 242 -72 230 -210zM529 488c4 74 -44 113 -131 113h-144l-42 -241h158c94 0 154 47 159 128z" />
    <glyph glyph-name="Q" unicode="Q" horiz-adv-x="705" 
d="M524 63l42 -77l-88 -51l-41 75c-34 -13 -71 -20 -109 -20c-191 0 -296 154 -255 380c38 209 173 341 343 341c188 0 290 -158 250 -381c-21 -115 -72 -208 -142 -267zM390 98l-46 84l88 50l43 -80c41 43 70 106 84 184c29 163 -39 274 -159 274
c-105 0 -193 -95 -220 -246c-29 -161 39 -274 156 -274c19 0 37 3 54 8z" />
    <glyph glyph-name="R" unicode="R" horiz-adv-x="690" 
d="M475 287l97 -287h-112l-94 277h-169l-49 -277h-103l124 700h268c142 0 227 -61 227 -187c0 -116 -63 -197 -189 -226zM555 506c0 59 -39 95 -126 95h-175l-39 -225h195c90 0 145 42 145 130z" />
    <glyph glyph-name="S" unicode="S" horiz-adv-x="626" 
d="M596 603l-83 -72c-41 46 -90 80 -171 80c-78 0 -116 -41 -119 -87c-3 -47 21 -73 138 -118c116 -45 197 -100 186 -222s-114 -195 -257 -195c-131 0 -219 61 -264 128l84 68c50 -64 114 -95 194 -95c73 0 133 36 136 100c2 53 -32 85 -147 129c-122 47 -185 96 -175 210
c10 115 109 182 241 182c112 0 185 -45 237 -108z" />
    <glyph glyph-name="T" unicode="T" horiz-adv-x="603" 
d="M615 597h-202l-105 -597h-105l105 597h-202l18 103h509z" />
    <glyph glyph-name="U" unicode="U" horiz-adv-x="700" 
d="M692 700l-74 -417c-33 -187 -116 -294 -291 -294c-152 0 -242 83 -242 233c1 23 4 53 9 82l70 396h105l-70 -396c-4 -24 -7 -48 -7 -68c0 -88 43 -145 144 -145c102 0 156 67 179 200l72 409h105z" />
    <glyph glyph-name="V" unicode="V" horiz-adv-x="688" 
d="M712 700l-360 -700h-112l-116 700h109l66 -443c6 -40 14 -101 17 -126c9 23 41 87 61 128l223 441h112z" />
    <glyph glyph-name="W" unicode="W" horiz-adv-x="859" 
d="M887 700l-263 -700h-112l-26 404c-2 44 -5 104 -4 139c-13 -35 -36 -95 -55 -139l-171 -404h-107l-19 700h108l1 -395c0 -40 -1 -104 -2 -136c11 32 36 95 53 135l168 396h100l28 -396c3 -41 4 -103 4 -135c10 32 32 96 46 136l144 395h107z" />
    <glyph glyph-name="X" unicode="X" horiz-adv-x="655" 
d="M335 270c0 0 -32 -44 -53 -71c-60 -77 -154 -199 -154 -199h-119l283 366l-144 334h113s44 -100 71 -164c12 -29 32 -78 32 -78s36 49 59 78c50 64 126 164 126 164h119l-261 -339l155 -361h-112s-52 122 -86 200c-11 26 -29 70 -29 70z" />
    <glyph glyph-name="Y" unicode="Y" horiz-adv-x="685" 
d="M722 700l-325 -424l-48 -276h-105l49 277l-174 423h117l72 -183c18 -47 42 -110 53 -144c23 33 65 96 101 144l138 183h122z" />
    <glyph glyph-name="Z" unicode="Z" horiz-adv-x="660" 
d="M655 700l-16 -96l-380 -405c-27 -27 -73 -77 -101 -103c13 1 89 1 107 1h295l-17 -97h-528l16 95l382 406c32 33 73 77 100 103c-12 -1 -86 -1 -104 -1h-267l17 97h496z" />
    <glyph glyph-name="bracketleft" unicode="[" horiz-adv-x="376" 
d="M248 -110h-218l142 810h218l-15 -85h-119l-112 -640h119z" />
    <glyph glyph-name="backslash" unicode="\" horiz-adv-x="446" 
d="M367 -90h-103l-155 880h103z" />
    <glyph glyph-name="bracketright" unicode="]" horiz-adv-x="376" 
d="M216 -110h-218l15 85h119l112 640h-119l15 85h218z" />
    <glyph glyph-name="asciicircum" unicode="^" horiz-adv-x="578" 
d="M552 382h-110l-91 209l-165 -209h-118l258 318h80z" />
    <glyph glyph-name="underscore" unicode="_" horiz-adv-x="500" 
d="M422 -177h-500l17 95h500z" />
    <glyph glyph-name="quoteleft" unicode="&#x2018;" horiz-adv-x="265" 
d="M278 700l-59 -251h-131l121 251h69z" />
    <glyph glyph-name="a" unicode="a" horiz-adv-x="542" 
d="M494 392c0 -14 -2 -28 -4 -43l-61 -349h-101l8 47c-33 -32 -79 -58 -139 -58c-96 0 -175 57 -165 170c9 124 111 179 220 179c51 0 103 -12 130 -26l7 38c2 10 3 22 3 30c0 45 -30 64 -96 64c-49 0 -94 -13 -134 -33l-29 82c45 23 111 43 175 43c113 0 186 -44 186 -144z
M368 227c-28 15 -68 26 -121 26c-66 0 -112 -33 -115 -93c-3 -47 26 -82 91 -82c53 0 101 31 130 64z" />
    <glyph glyph-name="b" unicode="b" 
d="M281 -11c-64 0 -111 26 -141 61l-8 -50h-102l119 676l111 53l-44 -248c35 34 78 55 130 55c99 0 174 -75 174 -219c0 -202 -111 -328 -239 -328zM415 311c0 84 -38 130 -101 130c-53 0 -99 -41 -117 -59l-40 -228c18 -29 67 -70 120 -70c89 0 138 112 138 227z" />
    <glyph glyph-name="c" unicode="c" horiz-adv-x="518" 
d="M494 434l-76 -69c-25 39 -60 73 -117 73c-83 0 -144 -79 -151 -195c-7 -95 35 -156 117 -156c42 0 78 20 117 56l55 -70c-56 -55 -117 -84 -185 -84c-135 0 -221 105 -208 259c13 183 133 288 263 288c100 0 151 -49 185 -102z" />
    <glyph glyph-name="d" unicode="d" 
d="M285 536c64 0 111 -26 141 -61l35 201l112 53l-129 -729h-102l8 44c-35 -34 -78 -55 -130 -55c-99 0 -174 75 -174 219c0 202 111 328 239 328zM151 214c0 -84 38 -130 101 -130c53 0 99 41 117 59l40 228c-18 29 -67 70 -120 70c-89 0 -138 -112 -138 -227z" />
    <glyph glyph-name="e" unicode="e" horiz-adv-x="545" 
d="M491 324c0 -34 -5 -68 -13 -97h-333c-8 -91 44 -145 121 -145c43 0 79 17 118 41l45 -72c-54 -41 -110 -62 -177 -62c-136 0 -219 101 -206 256c13 180 122 291 255 291c126 0 190 -90 190 -212zM393 310c7 76 -25 133 -103 133c-70 0 -113 -56 -132 -133h235z" />
    <glyph glyph-name="f" unicode="f" horiz-adv-x="358" 
d="M399 709l-15 -86c-13 7 -33 13 -57 13c-37 0 -50 -17 -57 -55l-10 -56h93l-17 -96h-93l-76 -429h-103l76 429h-68l17 96h68l12 67c16 99 65 134 147 134c37 0 65 -8 83 -17z" />
    <glyph glyph-name="g" unicode="g" 
d="M221 -11c-99 0 -174 75 -174 219c0 202 111 328 239 328c64 0 111 -26 141 -61l8 50h103l-80 -459c-29 -169 -92 -251 -294 -259l-22 82c150 4 189 53 207 145l2 10c-35 -34 -78 -55 -130 -55zM152 214c0 -84 38 -130 101 -130c53 0 99 41 117 59l40 228
c-18 29 -67 70 -120 70c-89 0 -138 -112 -138 -227z" />
    <glyph glyph-name="h" unicode="h" 
d="M508 373c0 -20 -3 -44 -7 -67l-54 -306h-103l51 293c3 18 5 36 5 51c0 66 -24 97 -85 97c-64 0 -114 -50 -132 -149l-51 -292h-103l119 675l113 54l-44 -249c29 30 70 56 130 56c103 0 161 -56 161 -163z" />
    <glyph glyph-name="i" unicode="i" horiz-adv-x="265" 
d="M264 659c0 -36 -29 -66 -64 -66c-36 0 -65 30 -65 66c0 37 29 67 65 67c35 0 64 -30 64 -67zM230 525l-92 -525h-103l92 525h103z" />
    <glyph glyph-name="j" unicode="j" horiz-adv-x="265" 
d="M265 659c0 -36 -30 -66 -64 -66c-36 0 -66 30 -66 66c0 37 30 67 66 67c34 0 64 -30 64 -67zM230 525l-89 -506c-24 -134 -68 -192 -218 -212l-23 89c94 18 123 37 139 127l88 502h103z" />
    <glyph glyph-name="k" unicode="k" horiz-adv-x="525" 
d="M264 264l-103 -109l-28 -155h-103l119 675l113 54l-60 -338c-7 -37 -16 -81 -18 -93c8 10 42 48 42 48l165 179h119l-165 -175l93 -350h-104z" />
    <glyph glyph-name="l" unicode="l" horiz-adv-x="265" 
d="M138 0h-103l119 675l113 54z" />
    <glyph glyph-name="m" unicode="m" horiz-adv-x="857" 
d="M800 376c0 -21 -3 -49 -8 -73l-53 -303h-103l52 293c3 19 6 43 6 58c0 59 -25 88 -82 88c-63 0 -108 -50 -125 -147l-51 -292h-103l51 293c3 19 7 42 7 58c0 59 -26 90 -83 90c-63 0 -107 -53 -124 -149l-51 -292h-103l92 525h103l-8 -47c29 32 66 58 125 58
c69 0 110 -28 134 -79c41 44 91 79 169 79c97 0 155 -58 155 -160z" />
    <glyph glyph-name="n" unicode="n" 
d="M508 373c0 -20 -3 -44 -7 -67l-54 -306h-103l51 293c3 18 5 36 5 51c0 66 -24 97 -85 97c-64 0 -114 -50 -132 -149l-51 -292h-103l93 525h103l-8 -45c29 30 70 56 130 56c103 0 161 -56 161 -163z" />
    <glyph glyph-name="o" unicode="o" 
d="M519 278c-12 -180 -135 -289 -263 -289c-136 0 -222 107 -210 257c12 180 136 290 261 290c139 0 225 -108 212 -258zM416 282c6 91 -35 156 -118 156c-81 0 -142 -82 -148 -196c-6 -91 35 -155 115 -155c83 0 145 85 151 195z" />
    <glyph glyph-name="p" unicode="p" 
d="M281 -11c-64 0 -111 26 -141 61l-33 -190l-112 -53l127 718h102l-8 -44c35 34 78 55 130 55c99 0 174 -75 174 -219c0 -202 -111 -328 -239 -328zM415 311c0 84 -38 130 -101 130c-53 0 -99 -41 -117 -59l-40 -228c18 -29 67 -70 120 -70c89 0 138 112 138 227z" />
    <glyph glyph-name="q" unicode="q" 
d="M285 536c64 0 111 -26 141 -61l8 50h103l-117 -665l-111 -53l41 237c-35 -34 -78 -55 -130 -55c-99 0 -174 75 -174 219c0 202 111 328 239 328zM151 214c0 -84 38 -130 101 -130c53 0 99 41 117 59l40 228c-18 29 -67 70 -120 70c-89 0 -138 -112 -138 -227z" />
    <glyph glyph-name="r" unicode="r" horiz-adv-x="414" 
d="M429 507l-43 -100c-16 13 -41 25 -74 25c-63 0 -110 -34 -129 -145l-50 -287h-103l93 525h103l-9 -48c30 35 73 59 123 59c42 0 71 -13 89 -29z" />
    <glyph glyph-name="s" unicode="s" horiz-adv-x="495" 
d="M461 473l-53 -82c-40 31 -90 54 -148 54c-44 0 -71 -18 -72 -49c-2 -30 10 -44 97 -84c92 -42 145 -80 137 -167c-9 -118 -106 -156 -195 -156c-91 0 -165 35 -211 78l55 76c44 -37 96 -63 165 -63c51 0 84 22 85 60c2 30 -15 50 -89 81c-104 45 -153 82 -145 169
c8 100 83 146 182 146c86 0 150 -31 192 -63z" />
    <glyph glyph-name="t" unicode="t" horiz-adv-x="399" 
d="M380 525l-17 -94h-124l-49 -281c-2 -10 -3 -20 -3 -28c0 -27 17 -38 47 -38c32 0 52 8 75 23l-30 -98c-26 -14 -58 -20 -83 -20c-76 0 -115 39 -115 105c0 11 2 23 4 36l53 301h-75l17 94h75l26 148l111 56l-36 -204h124z" />
    <glyph glyph-name="u" unicode="u" 
d="M57 152c0 20 3 44 7 67l54 306h103l-51 -293c-3 -18 -5 -36 -5 -51c0 -66 24 -97 85 -97c64 0 115 49 132 149l51 292h103l-93 -525h-103l8 45c-29 -30 -70 -56 -130 -56c-103 0 -161 56 -161 163z" />
    <glyph glyph-name="v" unicode="v" horiz-adv-x="536" 
d="M549 525l-280 -525h-97l-93 525h107l48 -328c2 -20 7 -57 7 -70c5 13 22 50 31 70l166 328h111z" />
    <glyph glyph-name="w" unicode="w" horiz-adv-x="737" 
d="M745 525l-233 -525h-94l-25 279c-2 29 -4 77 -4 99c-7 -22 -26 -70 -38 -99l-125 -279h-94l-47 525h104l16 -270c1 -29 3 -75 3 -97c8 22 25 67 37 97l125 270h88l26 -270c2 -30 4 -75 4 -97c8 22 25 68 36 97l115 270h106z" />
    <glyph glyph-name="x" unicode="x" horiz-adv-x="528" 
d="M201 278l-108 247h109s22 -52 38 -88c12 -28 30 -73 30 -73s32 45 55 75c29 37 67 86 67 86h113l-195 -250l121 -275h-109s-30 69 -49 113c-12 28 -32 76 -32 76s-30 -43 -50 -68c-37 -47 -94 -121 -94 -121h-113z" />
    <glyph glyph-name="y" unicode="y" horiz-adv-x="551" 
d="M564 525l-378 -710h-110l103 188l-100 522h109l51 -317c2 -20 10 -72 11 -84c4 13 29 63 38 84l166 317h110z" />
    <glyph glyph-name="z" unicode="z" horiz-adv-x="515" 
d="M496 525l-13 -78l-289 -320c-11 -13 -28 -30 -35 -38c9 1 26 1 38 1h232l-16 -90h-400l13 78l294 320c12 13 27 30 34 38c-8 -1 -24 -1 -36 -1h-213l14 90h377z" />
    <glyph glyph-name="braceleft" unicode="{" horiz-adv-x="423" 
d="M446 705l-13 -77c-100 -4 -130 -37 -146 -131l-10 -56c-17 -97 -45 -132 -101 -146c51 -18 65 -50 49 -147l-8 -45c-15 -88 10 -123 99 -136l-14 -77c-143 10 -213 72 -188 212l15 78c9 53 -3 72 -47 72h-23l16 89h22c48 0 63 18 72 72l17 90c27 150 95 209 260 202z" />
    <glyph glyph-name="bar" unicode="|" horiz-adv-x="296" 
d="M282 800l-174 -985h-95l174 985h95z" />
    <glyph glyph-name="braceright" unicode="}" horiz-adv-x="423" 
d="M374 343l-16 -89h-20c-48 0 -63 -18 -72 -72l-17 -90c-27 -150 -97 -209 -262 -202l13 77c101 4 131 36 147 131l11 56c16 98 44 132 100 146c-50 18 -65 49 -49 147l9 45c15 88 -12 123 -101 136l14 77c142 -10 214 -72 189 -212l-14 -78c-9 -53 3 -72 47 -72h21z" />
    <glyph glyph-name="asciitilde" unicode="~" horiz-adv-x="558" 
d="M544 424c-52 -92 -102 -141 -166 -141c-79 0 -128 74 -181 74c-25 0 -42 -18 -80 -76l-66 37c53 92 103 141 166 141c78 0 127 -74 180 -74c26 0 43 18 82 76z" />
    <glyph glyph-name="exclamdown" unicode="&#xa1;" horiz-adv-x="298" 
d="M143 636c0 41 34 75 75 75s75 -34 75 -75s-34 -76 -75 -76s-75 35 -75 76zM106 311l53 187h66l-13 -187l-55 -311h-106z" />
    <glyph glyph-name="cent" unicode="&#xa2;" horiz-adv-x="509" 
d="M511 529l-76 -65c-24 41 -67 71 -116 71c-82 0 -144 -73 -152 -198c-8 -102 39 -159 116 -159c41 0 78 19 118 56l54 -65c-51 -51 -102 -78 -159 -85l-17 -95h-105l18 105c-86 33 -139 121 -129 247c11 168 111 268 224 285l15 84h105l-16 -88c55 -14 94 -48 120 -93z
" />
    <glyph glyph-name="sterling" unicode="&#xa3;" horiz-adv-x="633" 
d="M298 280c-11 -53 -45 -120 -110 -183h356l-17 -97h-487l16 92c86 75 123 136 135 188h-102l17 93h84c-12 52 -36 100 -36 153c0 101 90 185 244 185c107 0 184 -42 240 -105l-72 -76c-45 49 -102 80 -179 80c-79 0 -124 -41 -124 -96c0 -54 21 -95 32 -141h153l-17 -93
h-133z" />
    <glyph glyph-name="fraction" unicode="&#x2044;" horiz-adv-x="473" 
d="M607 700l-593 -700h-116l593 700h116z" />
    <glyph glyph-name="yen" unicode="&#xa5;" horiz-adv-x="635" 
d="M344 118l-21 -118h-103l21 118h-159l16 92h158c1 0 12 65 12 65l-163 425h116l65 -184c16 -46 39 -109 48 -143c21 34 63 97 96 144l132 183h122l-313 -427s-11 -63 -12 -63h160l-16 -92h-159z" />
    <glyph glyph-name="florin" unicode="&#x192;" horiz-adv-x="403" 
d="M430 697l-16 -90c-16 8 -47 14 -74 14c-34 0 -52 -14 -58 -55l-6 -41h103l-17 -96h-103l-100 -567l-113 -55l110 622h-78l17 96h78l9 54c16 96 65 132 147 132c41 0 78 -6 101 -14z" />
    <glyph glyph-name="section" unicode="&#xa7;" horiz-adv-x="656" 
d="M197 467c-13 20 -19 42 -19 71c0 107 82 173 207 173c89 0 165 -31 214 -83l-70 -79c-42 38 -95 62 -157 62c-44 0 -84 -17 -84 -64c0 -41 46 -58 130 -95c129 -57 184 -108 184 -191c0 -93 -75 -148 -139 -177c13 -20 19 -42 19 -71c0 -107 -82 -173 -207 -173
c-89 0 -165 31 -214 83l70 79c42 -38 95 -62 157 -62c44 0 84 17 84 64c0 41 -46 58 -130 95c-129 57 -184 108 -184 191c0 93 75 148 139 177zM394 142c54 25 98 60 98 105s-30 70 -123 112c-42 19 -76 35 -104 50c-53 -25 -97 -60 -97 -105s30 -70 123 -112
c42 -19 76 -35 103 -50z" />
    <glyph glyph-name="quotesingle" unicode="'" horiz-adv-x="269" 
d="M277 700l-82 -327h-81l32 327h131z" />
    <glyph glyph-name="quotedblleft" unicode="&#x201c;" horiz-adv-x="500" 
d="M512 700l-58 -251h-131l120 251h69zM277 700l-58 -251h-131l120 251h69z" />
    <glyph glyph-name="guillemotleft" unicode="&#xab;" horiz-adv-x="588" 
d="M502 0h-111l-139 262l231 263h111l-226 -262zM280 0h-111l-139 262l231 263h111l-226 -262z" />
    <glyph glyph-name="guilsinglleft" unicode="&#x2039;" horiz-adv-x="366" 
d="M280 0h-111l-139 262l231 263h111l-226 -262z" />
    <glyph glyph-name="guilsinglright" unicode="&#x203a;" horiz-adv-x="366" 
d="M336 263l-231 -263h-111l226 262l-134 263h111z" />
    <glyph glyph-name="fi" unicode="&#xfb01;" horiz-adv-x="623" 
d="M622 659c0 -36 -29 -66 -64 -66c-36 0 -65 30 -65 66c0 37 29 67 65 67c35 0 64 -30 64 -67zM399 709l-15 -86c-13 7 -33 13 -57 13c-37 0 -50 -17 -57 -55l-10 -56h93l-17 -96h-93l-76 -429h-103l76 429h-68l17 96h68l12 67c18 99 65 134 147 134c37 0 65 -8 83 -17z
M588 525l-92 -525h-103l92 525h103z" />
    <glyph glyph-name="fl" unicode="&#xfb02;" horiz-adv-x="623" 
d="M496 0h-103l119 675l113 54zM399 709l-15 -86c-13 7 -33 13 -57 13c-37 0 -50 -17 -57 -55l-10 -56h93l-17 -96h-93l-76 -429h-103l76 429h-68l17 96h68l12 67c18 99 65 134 147 134c37 0 65 -8 83 -17z" />
    <glyph glyph-name="endash" unicode="&#x2013;" horiz-adv-x="460" 
d="M415 318h-350l17 96h350z" />
    <glyph glyph-name="dagger" unicode="&#x2020;" horiz-adv-x="590" 
d="M553 380h-186l-85 -480h-102l85 480h-192l17 97h192l40 223h102l-40 -223h186z" />
    <glyph glyph-name="daggerdbl" unicode="&#x2021;" horiz-adv-x="590" 
d="M511 123h-189l-40 -223h-102l40 223h-189l17 97h189l28 160h-189l17 97h189l40 223h102l-40 -223h189l-17 -97h-189l-28 -160h189z" />
    <glyph glyph-name="periodcentered" unicode="&#xb7;" horiz-adv-x="254" 
d="M223 367c0 -43 -36 -79 -79 -79s-79 36 -79 79s36 80 79 80s79 -37 79 -80z" />
    <glyph glyph-name="paragraph" unicode="&#xb6;" horiz-adv-x="720" 
d="M709 700l-156 -885h-99l139 789h-79l-139 -789h-99l78 446h-38c-145 0 -244 74 -233 213c11 140 118 226 262 226h364z" />
    <glyph glyph-name="bullet" unicode="&#x2022;" horiz-adv-x="430" 
d="M380 366c0 -84 -66 -150 -150 -150s-150 66 -150 150s66 152 150 152s150 -68 150 -152z" />
    <glyph glyph-name="quotesinglbase" unicode="&#x201a;" horiz-adv-x="265" 
d="M189 139l-120 -251h-69l58 251h131z" />
    <glyph glyph-name="quotedblbase" unicode="&#x201e;" horiz-adv-x="500" 
d="M423 139l-121 -251h-69l59 251h131zM188 139l-121 -251h-69l59 251h131z" />
    <glyph glyph-name="quotedblright" unicode="&#x201d;" horiz-adv-x="500" 
d="M522 700l-120 -251h-69l58 251h131zM287 700l-120 -251h-69l58 251h131z" />
    <glyph glyph-name="guillemotright" unicode="&#xbb;" horiz-adv-x="588" 
d="M558 263l-231 -263h-111l226 262l-134 263h111zM336 263l-231 -263h-111l226 262l-134 263h111z" />
    <glyph glyph-name="ellipsis" unicode="&#x2026;" horiz-adv-x="762" 
d="M679 68c0 -43 -36 -79 -79 -79s-79 36 -79 79s36 80 79 80s79 -37 79 -80zM425 68c0 -43 -36 -79 -79 -79s-79 36 -79 79s36 80 79 80s79 -37 79 -80zM171 68c0 -43 -36 -79 -79 -79s-79 36 -79 79s36 80 79 80s79 -37 79 -80z" />
    <glyph glyph-name="perthousand" unicode="&#x2030;" horiz-adv-x="1336" 
d="M436 513c-10 -133 -93 -237 -203 -237c-97 0 -157 77 -146 196c10 135 92 239 202 239c100 0 157 -79 147 -198zM830 700l-553 -700h-101l553 700h101zM1319 226c-10 -133 -93 -237 -203 -237c-96 0 -156 77 -146 196c11 135 92 239 203 239c99 0 156 -79 146 -198z
M918 226c-10 -133 -93 -237 -203 -237c-96 0 -156 77 -146 196c11 135 92 239 203 239c99 0 156 -79 146 -198zM348 514c7 79 -17 113 -67 113c-55 0 -101 -56 -107 -155c-6 -79 17 -112 66 -112c56 0 102 58 108 154zM1232 227c6 79 -18 113 -67 113
c-56 0 -101 -56 -107 -155c-6 -79 17 -112 65 -112c56 0 102 58 109 154zM831 227c6 79 -18 113 -67 113c-56 0 -101 -56 -107 -155c-6 -79 17 -112 65 -112c56 0 102 58 109 154z" />
    <glyph glyph-name="questiondown" unicode="&#xbf;" horiz-adv-x="567" 
d="M297 636c0 41 34 75 75 75s75 -34 75 -75s-34 -76 -75 -76s-75 35 -75 76zM36 159c0 104 50 153 145 199c65 31 105 51 117 138h103c-15 -130 -61 -167 -156 -209c-62 -27 -102 -56 -102 -109s46 -85 118 -85c65 0 128 25 188 72l54 -84c-70 -57 -155 -92 -252 -92
c-137 0 -215 74 -215 170z" />
    <glyph glyph-name="grave" unicode="`" horiz-adv-x="500" 
d="M405 595h-82l-137 160h140z" />
    <glyph glyph-name="acute" unicode="&#xb4;" horiz-adv-x="500" 
d="M486 755l-193 -160h-82l135 160h140z" />
    <glyph glyph-name="circumflex" unicode="&#x2c6;" horiz-adv-x="500" 
d="M485 595h-79l-80 88l-110 -88h-85l145 160h120z" />
    <glyph glyph-name="tilde" unicode="&#x2dc;" horiz-adv-x="500" 
d="M521 728c-16 -93 -59 -136 -119 -136c-67 0 -116 58 -156 58c-22 0 -37 -14 -49 -55h-71c17 92 59 136 119 136c67 0 117 -58 157 -58c22 0 36 14 48 55h71z" />
    <glyph glyph-name="macron" unicode="&#xaf;" horiz-adv-x="500" 
d="M451 610h-280l15 90h280z" />
    <glyph glyph-name="breve" unicode="&#x2d8;" horiz-adv-x="500" 
d="M513 755c-24 -101 -92 -160 -198 -160c-100 0 -165 59 -156 160h71c-2 -57 32 -84 95 -84c61 0 98 26 118 84h70z" />
    <glyph glyph-name="dotaccent" unicode="&#x2d9;" horiz-adv-x="500" 
d="M387 662c0 -36 -31 -67 -67 -67c-37 0 -68 31 -68 67c0 37 31 68 68 68c36 0 67 -31 67 -68z" />
    <glyph glyph-name="dieresis" unicode="&#xa8;" horiz-adv-x="500" 
d="M485 662c0 -36 -31 -67 -67 -67c-37 0 -68 31 -68 67c0 37 31 68 68 68c36 0 67 -31 67 -68zM290 662c0 -36 -31 -67 -67 -67c-37 0 -68 31 -68 67c0 37 31 68 68 68c36 0 67 -31 67 -68z" />
    <glyph glyph-name="ring" unicode="&#x2da;" horiz-adv-x="500" 
d="M455 720c0 -72 -54 -125 -126 -125s-126 53 -126 125s54 126 126 126s126 -54 126 -126zM390 720c0 36 -26 62 -61 62s-61 -26 -61 -62s26 -62 61 -62s61 26 61 62z" />
    <glyph glyph-name="cedilla" unicode="&#xb8;" horiz-adv-x="500" 
d="M309 -107c-4 -55 -50 -86 -117 -86c-57 0 -102 20 -136 45l27 33c28 -20 59 -32 97 -32c33 0 56 11 57 36c2 19 -9 30 -30 30c-15 0 -26 -4 -38 -11l-34 14l43 97h49l-28 -65c11 5 24 9 42 9c42 0 71 -24 68 -70z" />
    <glyph glyph-name="hungarumlaut" unicode="&#x2dd;" horiz-adv-x="500" 
d="M588 755l-193 -160h-82l135 160h140zM383 755l-193 -160h-82l135 160h140z" />
    <glyph glyph-name="ogonek" unicode="&#x2db;" horiz-adv-x="500" 
d="M300 -153c-38 -22 -81 -40 -121 -40c-63 0 -97 30 -93 82c4 43 40 81 98 111h59c-56 -41 -80 -68 -83 -102c-1 -21 12 -36 44 -36c25 0 49 5 83 20z" />
    <glyph glyph-name="caron" unicode="&#x2c7;" horiz-adv-x="500" 
d="M513 755l-145 -160h-120l-89 160h79l80 -88l110 88h85z" />
    <glyph glyph-name="emdash" unicode="&#x2014;" horiz-adv-x="620" 
d="M575 318h-510l16 96h510z" />
    <glyph glyph-name="AE" unicode="&#xc6;" horiz-adv-x="1018" 
d="M1022 700l-18 -102h-342l-30 -173h197l-18 -102h-197l-39 -221h357l-18 -102h-463l27 151h-262l-127 -151h-124l588 700h469zM554 564c-19 -27 -66 -84 -95 -121l-166 -195h202l32 175c8 47 21 113 27 141z" />
    <glyph glyph-name="ordfeminine" unicode="&#xaa;" horiz-adv-x="456" 
d="M444 598c0 -10 -2 -21 -4 -32l-50 -287h-85l7 35c-26 -24 -63 -44 -108 -44c-71 0 -134 40 -134 124c0 103 77 158 177 158c40 0 76 -8 102 -19l7 33c7 41 -10 66 -73 66c-38 0 -73 -11 -107 -27l-24 69c24 13 81 37 141 37c95 0 151 -36 151 -113zM338 462
c-22 11 -51 20 -93 20c-55 0 -89 -28 -89 -80c0 -35 22 -58 68 -58c43 0 78 24 102 51z" />
    <glyph glyph-name="Lslash" unicode="&#x141;" horiz-adv-x="606" 
d="M510 0h-450l42 234l-76 -52l21 115l75 52l62 351h103l-49 -279l160 115l-20 -115l-161 -115l-36 -203h347z" />
    <glyph glyph-name="Oslash" unicode="&#xd8;" horiz-adv-x="707" 
d="M141 61c-65 66 -92 175 -68 309c38 209 173 341 343 341c45 0 85 -9 119 -26l41 65h98l-72 -115c62 -67 87 -175 64 -305c-37 -206 -171 -341 -338 -341c-45 0 -85 8 -119 24l-40 -63h-98zM205 163l271 429c-22 12 -47 18 -76 18c-105 0 -193 -95 -220 -246
c-15 -83 -4 -153 25 -201zM537 532l-270 -427c20 -10 43 -15 68 -15c111 0 197 94 224 246c14 80 5 148 -22 196z" />
    <glyph glyph-name="OE" unicode="&#x152;" horiz-adv-x="1058" 
d="M610 617l15 83h437l-18 -102h-342l-30 -173h197l-18 -102h-197l-39 -221h357l-8 -102h-462l13 76c-44 -54 -100 -87 -187 -87c-191 0 -296 155 -255 381c38 209 173 341 343 341c88 0 153 -34 194 -94zM559 336c29 163 -39 274 -159 274c-105 0 -193 -95 -220 -246
c-29 -161 38 -274 155 -274c111 0 197 94 224 246z" />
    <glyph glyph-name="ordmasculine" unicode="&#xba;" horiz-adv-x="481" 
d="M255 270c-100 0 -165 73 -165 181c0 144 94 260 220 260c97 0 164 -74 164 -182c0 -149 -103 -259 -219 -259zM386 525c0 63 -33 104 -90 104c-70 0 -118 -76 -118 -174c0 -65 33 -103 86 -103c68 0 122 79 122 173z" />
    <glyph glyph-name="ae" unicode="&#xe6;" horiz-adv-x="853" 
d="M799 323c0 -37 -5 -71 -13 -96h-329c-8 -90 43 -140 119 -140c38 0 74 13 111 38l50 -74c-55 -43 -114 -62 -172 -62c-78 0 -137 34 -171 85c-54 -49 -116 -85 -196 -85c-102 0 -174 60 -166 172c9 121 109 177 224 177c44 0 91 -12 119 -26l8 44c1 7 2 16 2 23
c0 43 -28 68 -86 68c-49 0 -92 -11 -136 -33l-29 79c43 21 104 43 176 43c75 0 125 -21 150 -70c39 43 91 70 152 70c130 0 187 -100 187 -213zM701 310c7 75 -24 133 -101 133c-68 0 -111 -57 -129 -133h230zM360 146c-3 10 -2 38 -2 51l3 30c-28 15 -61 26 -114 26
c-66 0 -109 -33 -112 -93c-2 -47 23 -82 88 -82c49 0 99 29 137 68z" />
    <glyph glyph-name="dotlessi" unicode="&#x131;" horiz-adv-x="265" 
d="M230 525l-92 -525h-103l92 525h103z" />
    <glyph glyph-name="lslash" unicode="&#x142;" horiz-adv-x="285" 
d="M262 357l-60 -45l-55 -312h-101l42 238l-59 -39l21 115l59 40l56 322l111 53l-53 -301l59 44z" />
    <glyph glyph-name="oslash" unicode="&#xf8;" 
d="M100 55c-40 46 -60 113 -54 191c12 180 136 290 261 290c38 0 72 -8 102 -23l42 62h92l-74 -110c38 -46 56 -111 50 -187c-12 -180 -135 -289 -263 -289c-35 0 -67 7 -95 20c-21 -31 -40 -59 -40 -59h-92s71 106 71 105zM163 149l190 282c-15 8 -34 13 -55 13
c-81 0 -142 -88 -148 -202c-2 -35 2 -67 13 -93zM404 370c0 0 -188 -278 -188 -279c15 -6 31 -10 49 -10c83 0 145 91 151 201c2 33 -2 63 -12 88z" />
    <glyph glyph-name="oe" unicode="&#x153;" horiz-adv-x="914" 
d="M447 93c-47 -67 -117 -104 -192 -104c-136 0 -220 107 -210 257c12 180 136 290 261 290c84 0 145 -40 176 -105c45 67 111 105 188 105c126 0 190 -90 190 -212c0 -34 -5 -68 -13 -97h-333c-8 -91 44 -145 121 -145c43 0 79 17 118 41l45 -72c-54 -41 -110 -62 -177 -62
c-84 0 -143 38 -174 104zM762 310c7 76 -25 133 -103 133c-70 0 -113 -56 -132 -133h235zM415 282c5 91 -35 156 -118 156c-81 0 -142 -82 -148 -196c-5 -91 35 -155 115 -155c83 0 145 85 151 195z" />
    <glyph glyph-name="germandbls" unicode="&#xdf;" horiz-adv-x="574" 
d="M406 396c57 -16 117 -61 117 -155c0 -170 -116 -240 -268 -240c-14 0 -29 1 -40 2l15 94c6 -1 26 -1 30 -1c99 0 159 49 159 140c0 68 -45 113 -134 113h-9l16 93h15c72 0 115 47 115 111c0 43 -31 78 -88 78c-65 0 -96 -39 -108 -105l-117 -664l-112 -55l126 719
c25 143 100 200 216 200c113 0 187 -63 187 -157c0 -91 -51 -155 -120 -173z" />
    <glyph glyph-name="NUL" horiz-adv-x="0" 
 />
    <glyph glyph-name="Eth" unicode="&#xd0;" horiz-adv-x="695" 
d="M656 370c-19 -273 -224 -370 -397 -370h-199l56 316h-66l17 100h66l50 284h139c222 0 353 -105 334 -330zM548 373c11 151 -65 224 -231 224h-50l-32 -181h123l-17 -100h-123l-38 -213h92c139 0 267 87 276 270z" />
    <glyph glyph-name="eth" unicode="&#xf0;" 
d="M393 671l45 40l50 -52l-37 -33c48 -51 79 -128 79 -244c0 -286 -142 -393 -278 -393c-127 0 -210 84 -210 206c0 175 127 284 249 284c76 0 123 -26 151 -65c-6 59 -20 112 -59 152l-59 -53l-50 52l47 42c-22 9 -47 17 -77 22l14 84c49 -7 95 -20 135 -42zM410 270
c0 72 -47 116 -120 116c-82 0 -142 -78 -142 -188c0 -72 39 -115 113 -115c84 0 149 81 149 187z" />
    <glyph glyph-name="Scaron" unicode="&#x160;" horiz-adv-x="626" 
d="M596 603l-83 -72c-41 46 -90 80 -171 80c-78 0 -116 -41 -119 -87c-3 -47 21 -73 138 -118c116 -45 197 -100 186 -222s-114 -195 -257 -195c-131 0 -219 61 -264 128l84 68c50 -64 114 -95 194 -95c73 0 133 36 136 100c2 53 -32 85 -147 129c-122 47 -185 96 -175 210
c10 115 109 182 241 182c112 0 185 -45 237 -108zM591 912l-145 -160h-120l-89 160h79l80 -88l110 88h85z" />
    <glyph glyph-name="scaron" unicode="&#x161;" horiz-adv-x="495" 
d="M461 473l-53 -82c-40 31 -90 54 -148 54c-44 0 -71 -18 -72 -49c-2 -30 10 -44 97 -84c92 -42 145 -80 137 -167c-9 -118 -106 -156 -195 -156c-91 0 -165 35 -211 78l55 76c44 -37 96 -63 165 -63c51 0 84 22 85 60c2 30 -15 50 -89 81c-104 45 -153 82 -145 169
c8 100 83 146 182 146c86 0 150 -31 192 -63zM505 755l-145 -160h-120l-89 160h79l80 -88l110 88h85z" />
    <glyph glyph-name="Yacute" unicode="&#xdd;" horiz-adv-x="685" 
d="M722 700l-325 -424l-48 -276h-105l49 277l-174 423h117l72 -183c18 -47 42 -110 53 -144c23 33 65 96 101 144l138 183h122zM618 891l-193 -160h-82l135 160h140z" />
    <glyph glyph-name="yacute" unicode="&#xfd;" horiz-adv-x="551" 
d="M564 525l-378 -710h-110l103 188l-100 522h109l51 -317c2 -20 10 -72 11 -84c4 13 29 63 38 84l166 317h110zM536 745l-193 -160h-82l135 160h140z" />
    <glyph glyph-name="Thorn" unicode="&#xde;" horiz-adv-x="641" 
d="M616 373c-13 -165 -128 -229 -276 -229h-165l-25 -144h-105l123 700h105l-21 -117h134c139 0 242 -72 230 -210zM508 371c4 74 -46 111 -133 111h-140l-42 -237h157c94 0 153 45 158 126z" />
    <glyph glyph-name="thorn" unicode="&#xfe;" 
d="M519 283c-13 -185 -118 -294 -241 -294c-61 0 -107 26 -137 61l-33 -190l-112 -53l153 869l111 53l-44 -248c35 34 79 55 131 55c107 0 187 -84 172 -253zM415 283c9 102 -30 158 -100 158c-43 0 -85 -29 -117 -59l-40 -228c18 -29 70 -70 120 -70c71 0 131 71 137 199z
" />
    <glyph glyph-name="Zcaron" unicode="&#x17d;" horiz-adv-x="660" 
d="M655 700l-16 -96l-380 -405c-27 -27 -73 -77 -101 -103c13 1 89 1 107 1h295l-17 -97h-528l16 95l382 406c32 33 73 77 100 103c-12 -1 -86 -1 -104 -1h-267l17 97h496zM611 905l-145 -160h-120l-89 160h79l80 -88l110 88h85z" />
    <glyph glyph-name="zcaron" unicode="&#x17e;" horiz-adv-x="515" 
d="M496 525l-13 -78l-289 -320c-11 -13 -28 -30 -35 -38c9 1 26 1 38 1h232l-16 -90h-400l13 78l294 320c12 13 27 30 34 38c-8 -1 -24 -1 -36 -1h-213l14 90h377zM528 755l-145 -160h-120l-89 160h79l80 -88l110 88h85z" />
    <glyph glyph-name="onehalf" unicode="&#xbd;" horiz-adv-x="760" 
d="M740 346l-167 -126c-7 -4 -14 -4 -17 -2c-7 5 -11 10 -7 18l23 66h-147v-149l65 23c9 4 14 0 19 -7c2 -4 2 -10 -2 -17l-126 -167l-126 167c-4 7 -5 13 -3 17c6 7 11 11 20 7l65 -23v149h-149l23 -66c4 -8 0 -13 -7 -18c-3 -2 -10 -2 -17 2l-167 126l167 126
c7 4 14 5 17 3c7 -6 11 -11 7 -20l-23 -65h149v157l-65 -23c-9 -4 -14 0 -20 7c-2 3 -1 10 3 17l126 167l126 -167c4 -7 4 -14 2 -17c-5 -7 -10 -11 -19 -7l-65 23v-157h147l-23 65c-4 9 0 14 7 20c3 2 10 1 17 -3z" />
    <glyph glyph-name="onequarter" unicode="&#xbc;" horiz-adv-x="760" 
d="M740 346l-167 -126c-7 -4 -14 -4 -17 -2c-7 5 -11 10 -7 18l23 66h-147v-149l65 23c9 4 14 0 19 -7c2 -4 2 -10 -2 -17l-126 -167l-126 167c-4 7 -5 13 -3 17c6 7 11 11 20 7l65 -23v149h-149l23 -66c4 -8 0 -13 -7 -18c-3 -2 -10 -2 -17 2l-167 126l167 126
c7 4 14 5 17 3c7 -6 11 -11 7 -20l-23 -65h149v157l-65 -23c-9 -4 -14 0 -20 7c-2 3 -1 10 3 17l126 167l126 -167c4 -7 4 -14 2 -17c-5 -7 -10 -11 -19 -7l-65 23v-157h147l-23 65c-4 9 0 14 7 20c3 2 10 1 17 -3z" />
    <glyph glyph-name="onesuperior" unicode="&#xb9;" horiz-adv-x="760" 
d="M740 346l-167 -126c-7 -4 -14 -4 -17 -2c-7 5 -11 10 -7 18l23 66h-147v-149l65 23c9 4 14 0 19 -7c2 -4 2 -10 -2 -17l-126 -167l-126 167c-4 7 -5 13 -3 17c6 7 11 11 20 7l65 -23v149h-149l23 -66c4 -8 0 -13 -7 -18c-3 -2 -10 -2 -17 2l-167 126l167 126
c7 4 14 5 17 3c7 -6 11 -11 7 -20l-23 -65h149v157l-65 -23c-9 -4 -14 0 -20 7c-2 3 -1 10 3 17l126 167l126 -167c4 -7 4 -14 2 -17c-5 -7 -10 -11 -19 -7l-65 23v-157h147l-23 65c-4 9 0 14 7 20c3 2 10 1 17 -3z" />
    <glyph glyph-name="threequarters" unicode="&#xbe;" horiz-adv-x="760" 
d="M740 346l-167 -126c-7 -4 -14 -4 -17 -2c-7 5 -11 10 -7 18l23 66h-147v-149l65 23c9 4 14 0 19 -7c2 -4 2 -10 -2 -17l-126 -167l-126 167c-4 7 -5 13 -3 17c6 7 11 11 20 7l65 -23v149h-149l23 -66c4 -8 0 -13 -7 -18c-3 -2 -10 -2 -17 2l-167 126l167 126
c7 4 14 5 17 3c7 -6 11 -11 7 -20l-23 -65h149v157l-65 -23c-9 -4 -14 0 -20 7c-2 3 -1 10 3 17l126 167l126 -167c4 -7 4 -14 2 -17c-5 -7 -10 -11 -19 -7l-65 23v-157h147l-23 65c-4 9 0 14 7 20c3 2 10 1 17 -3z" />
    <glyph glyph-name="threesuperior" unicode="&#xb3;" horiz-adv-x="760" 
d="M740 346l-167 -126c-7 -4 -14 -4 -17 -2c-7 5 -11 10 -7 18l23 66h-147v-149l65 23c9 4 14 0 19 -7c2 -4 2 -10 -2 -17l-126 -167l-126 167c-4 7 -5 13 -3 17c6 7 11 11 20 7l65 -23v149h-149l23 -66c4 -8 0 -13 -7 -18c-3 -2 -10 -2 -17 2l-167 126l167 126
c7 4 14 5 17 3c7 -6 11 -11 7 -20l-23 -65h149v157l-65 -23c-9 -4 -14 0 -20 7c-2 3 -1 10 3 17l126 167l126 -167c4 -7 4 -14 2 -17c-5 -7 -10 -11 -19 -7l-65 23v-157h147l-23 65c-4 9 0 14 7 20c3 2 10 1 17 -3z" />
    <glyph glyph-name="twosuperior" unicode="&#xb2;" horiz-adv-x="760" 
d="M740 346l-167 -126c-7 -4 -14 -4 -17 -2c-7 5 -11 10 -7 18l23 66h-147v-149l65 23c9 4 14 0 19 -7c2 -4 2 -10 -2 -17l-126 -167l-126 167c-4 7 -5 13 -3 17c6 7 11 11 20 7l65 -23v149h-149l23 -66c4 -8 0 -13 -7 -18c-3 -2 -10 -2 -17 2l-167 126l167 126
c7 4 14 5 17 3c7 -6 11 -11 7 -20l-23 -65h149v157l-65 -23c-9 -4 -14 0 -20 7c-2 3 -1 10 3 17l126 167l126 -167c4 -7 4 -14 2 -17c-5 -7 -10 -11 -19 -7l-65 23v-157h147l-23 65c-4 9 0 14 7 20c3 2 10 1 17 -3z" />
    <glyph glyph-name="brokenbar" unicode="&#xa6;" horiz-adv-x="760" 
d="M740 346l-167 -126c-7 -4 -14 -4 -17 -2c-7 5 -11 10 -7 18l23 66h-147v-149l65 23c9 4 14 0 19 -7c2 -4 2 -10 -2 -17l-126 -167l-126 167c-4 7 -5 13 -3 17c6 7 11 11 20 7l65 -23v149h-149l23 -66c4 -8 0 -13 -7 -18c-3 -2 -10 -2 -17 2l-167 126l167 126
c7 4 14 5 17 3c7 -6 11 -11 7 -20l-23 -65h149v157l-65 -23c-9 -4 -14 0 -20 7c-2 3 -1 10 3 17l126 167l126 -167c4 -7 4 -14 2 -17c-5 -7 -10 -11 -19 -7l-65 23v-157h147l-23 65c-4 9 0 14 7 20c3 2 10 1 17 -3z" />
    <glyph glyph-name="minus" unicode="&#x2212;" horiz-adv-x="760" 
d="M740 346l-167 -126c-7 -4 -14 -4 -17 -2c-7 5 -11 10 -7 18l23 66h-147v-149l65 23c9 4 14 0 19 -7c2 -4 2 -10 -2 -17l-126 -167l-126 167c-4 7 -5 13 -3 17c6 7 11 11 20 7l65 -23v149h-149l23 -66c4 -8 0 -13 -7 -18c-3 -2 -10 -2 -17 2l-167 126l167 126
c7 4 14 5 17 3c7 -6 11 -11 7 -20l-23 -65h149v157l-65 -23c-9 -4 -14 0 -20 7c-2 3 -1 10 3 17l126 167l126 -167c4 -7 4 -14 2 -17c-5 -7 -10 -11 -19 -7l-65 23v-157h147l-23 65c-4 9 0 14 7 20c3 2 10 1 17 -3z" />
    <glyph glyph-name="multiply" unicode="&#xd7;" horiz-adv-x="760" 
d="M740 346l-167 -126c-7 -4 -14 -4 -17 -2c-7 5 -11 10 -7 18l23 66h-147v-149l65 23c9 4 14 0 19 -7c2 -4 2 -10 -2 -17l-126 -167l-126 167c-4 7 -5 13 -3 17c6 7 11 11 20 7l65 -23v149h-149l23 -66c4 -8 0 -13 -7 -18c-3 -2 -10 -2 -17 2l-167 126l167 126
c7 4 14 5 17 3c7 -6 11 -11 7 -20l-23 -65h149v157l-65 -23c-9 -4 -14 0 -20 7c-2 3 -1 10 3 17l126 167l126 -167c4 -7 4 -14 2 -17c-5 -7 -10 -11 -19 -7l-65 23v-157h147l-23 65c-4 9 0 14 7 20c3 2 10 1 17 -3z" />
    <glyph glyph-name="Adieresis" unicode="&#xc4;" horiz-adv-x="707" 
d="M613 0h-110l-29 167h-272l-87 -167h-114l376 700h106zM460 260l-32 187c-8 44 -16 96 -18 124c-12 -27 -37 -79 -62 -125l-100 -186h212zM610 812c0 -36 -31 -67 -67 -67c-37 0 -68 31 -68 67c0 37 31 68 68 68c36 0 67 -31 67 -68zM415 812c0 -36 -31 -67 -67 -67
c-37 0 -68 31 -68 67c0 37 31 68 68 68c36 0 67 -31 67 -68z" />
    <glyph glyph-name="Aring" unicode="&#xc5;" horiz-adv-x="707" 
d="M495 645l120 -645h-112l-29 167h-272l-87 -167h-114l356 663c-27 22 -43 56 -43 96c0 72 54 126 126 126s126 -54 126 -126c0 -52 -28 -94 -71 -114zM501 759c0 36 -26 62 -61 62s-61 -26 -61 -62s26 -62 61 -62s61 26 61 62zM460 260l-32 187c-8 44 -16 96 -18 124
c-12 -27 -37 -79 -62 -125l-100 -186h212z" />
    <glyph glyph-name="Ccedilla" unicode="&#xc7;" horiz-adv-x="651" 
d="M266 -6c-119 21 -201 117 -201 283c0 261 159 434 349 434c115 0 192 -57 228 -148l-99 -47c-29 58 -71 92 -141 92c-125 0 -229 -133 -229 -316c0 -127 60 -200 153 -200c67 0 119 35 166 92l76 -66c-60 -81 -143 -129 -248 -129h-7l-15 -35c11 5 24 9 42 9
c42 0 71 -24 68 -70c-4 -55 -50 -86 -117 -86c-57 0 -102 20 -136 45l27 33c28 -20 59 -32 97 -32c33 0 56 11 57 36c2 19 -9 30 -30 30c-15 0 -26 -4 -38 -11l-34 14z" />
    <glyph glyph-name="Eacute" unicode="&#xc9;" horiz-adv-x="611" 
d="M507 0h-462l123 700h447l-18 -102h-342l-30 -173h197l-18 -102h-197l-39 -221h357zM595 905l-193 -160h-82l135 160h140z" />
    <glyph glyph-name="Ntilde" unicode="&#xd1;" horiz-adv-x="710" 
d="M697 700l-124 -700h-96l-204 448c-12 27 -28 63 -35 83c-2 -13 -12 -80 -15 -100l-75 -431h-103l124 700h101l200 -447c12 -26 27 -64 34 -82c2 13 12 80 15 99l75 430h103zM640 880c-16 -93 -59 -136 -119 -136c-67 0 -116 58 -156 58c-22 0 -37 -14 -49 -55h-71
c17 92 59 136 119 136c67 0 117 -58 157 -58c22 0 36 14 48 55h71z" />
    <glyph glyph-name="Odieresis" unicode="&#xd6;" horiz-adv-x="707" 
d="M666 330c-37 -206 -171 -341 -338 -341c-191 0 -296 155 -255 381c38 209 173 341 343 341c188 0 290 -158 250 -381zM559 336c29 163 -39 274 -159 274c-105 0 -193 -95 -220 -246c-29 -161 38 -274 155 -274c111 0 197 94 224 246zM703 812c0 -36 -31 -67 -67 -67
c-37 0 -68 31 -68 67c0 37 31 68 68 68c36 0 67 -31 67 -68zM508 812c0 -36 -31 -67 -67 -67c-37 0 -68 31 -68 67c0 37 31 68 68 68c36 0 67 -31 67 -68z" />
    <glyph glyph-name="Udieresis" unicode="&#xdc;" horiz-adv-x="700" 
d="M692 700l-74 -417c-33 -187 -116 -294 -291 -294c-152 0 -242 83 -242 233c1 23 4 53 9 82l70 396h105l-70 -396c-4 -24 -7 -48 -7 -68c0 -88 43 -145 144 -145c102 0 156 67 179 200l72 409h105zM610 812c0 -36 -31 -67 -67 -67c-37 0 -68 31 -68 67c0 37 31 68 68 68
c36 0 67 -31 67 -68zM415 812c0 -36 -31 -67 -67 -67c-37 0 -68 31 -68 67c0 37 31 68 68 68c36 0 67 -31 67 -68z" />
    <glyph glyph-name="aacute" unicode="&#xe1;" horiz-adv-x="542" 
d="M494 392c0 -14 -2 -28 -4 -43l-61 -349h-101l8 47c-33 -32 -79 -58 -139 -58c-96 0 -175 57 -165 170c9 124 111 179 220 179c51 0 103 -12 130 -26l7 38c2 10 3 22 3 30c0 45 -30 64 -96 64c-49 0 -94 -13 -134 -33l-29 82c45 23 111 43 175 43c113 0 186 -44 186 -144z
M368 227c-28 15 -68 26 -121 26c-66 0 -112 -33 -115 -93c-3 -47 26 -82 91 -82c53 0 101 31 130 64zM569 755l-193 -160h-82l135 160h140z" />
    <glyph glyph-name="agrave" unicode="&#xe0;" horiz-adv-x="542" 
d="M494 392c0 -14 -2 -28 -4 -43l-61 -349h-101l8 47c-33 -32 -79 -58 -139 -58c-96 0 -175 57 -165 170c9 124 111 179 220 179c51 0 103 -12 130 -26l7 38c2 10 3 22 3 30c0 45 -30 64 -96 64c-49 0 -94 -13 -134 -33l-29 82c45 23 111 43 175 43c113 0 186 -44 186 -144z
M368 227c-28 15 -68 26 -121 26c-66 0 -112 -33 -115 -93c-3 -47 26 -82 91 -82c53 0 101 31 130 64zM423 595h-82l-137 160h140z" />
    <glyph glyph-name="acircumflex" unicode="&#xe2;" horiz-adv-x="542" 
d="M494 392c0 -14 -2 -28 -4 -43l-61 -349h-101l8 47c-33 -32 -79 -58 -139 -58c-96 0 -175 57 -165 170c9 124 111 179 220 179c51 0 103 -12 130 -26l7 38c2 10 3 22 3 30c0 45 -30 64 -96 64c-49 0 -94 -13 -134 -33l-29 82c45 23 111 43 175 43c113 0 186 -44 186 -144z
M368 227c-28 15 -68 26 -121 26c-66 0 -112 -33 -115 -93c-3 -47 26 -82 91 -82c53 0 101 31 130 64zM536 590h-79l-80 88l-110 -88h-85l145 160h120z" />
    <glyph glyph-name="adieresis" unicode="&#xe4;" horiz-adv-x="542" 
d="M494 392c0 -14 -2 -28 -4 -43l-61 -349h-101l8 47c-33 -32 -79 -58 -139 -58c-96 0 -175 57 -165 170c9 124 111 179 220 179c51 0 103 -12 130 -26l7 38c2 10 3 22 3 30c0 45 -30 64 -96 64c-49 0 -94 -13 -134 -33l-29 82c45 23 111 43 175 43c113 0 186 -44 186 -144z
M368 227c-28 15 -68 26 -121 26c-66 0 -112 -33 -115 -93c-3 -47 26 -82 91 -82c53 0 101 31 130 64zM535 657c0 -36 -31 -67 -67 -67c-37 0 -68 31 -68 67c0 37 31 68 68 68c36 0 67 -31 67 -68zM340 657c0 -36 -31 -67 -67 -67c-37 0 -68 31 -68 67c0 37 31 68 68 68
c36 0 67 -31 67 -68z" />
    <glyph glyph-name="atilde" unicode="&#xe3;" horiz-adv-x="542" 
d="M494 392c0 -14 -2 -28 -4 -43l-61 -349h-101l8 47c-33 -32 -79 -58 -139 -58c-96 0 -175 57 -165 170c9 124 111 179 220 179c51 0 103 -12 130 -26l7 38c2 10 3 22 3 30c0 45 -30 64 -96 64c-49 0 -94 -13 -134 -33l-29 82c45 23 111 43 175 43c113 0 186 -44 186 -144z
M368 227c-28 15 -68 26 -121 26c-66 0 -112 -33 -115 -93c-3 -47 26 -82 91 -82c53 0 101 31 130 64zM561 728c-16 -93 -59 -136 -119 -136c-67 0 -116 58 -156 58c-22 0 -37 -14 -49 -55h-71c17 92 59 136 119 136c67 0 117 -58 157 -58c22 0 36 14 48 55h71z" />
    <glyph glyph-name="aring" unicode="&#xe5;" horiz-adv-x="542" 
d="M494 392c0 -14 -2 -28 -4 -43l-61 -349h-101l8 47c-33 -32 -79 -58 -139 -58c-96 0 -175 57 -165 170c9 124 111 179 220 179c51 0 103 -12 130 -26l7 38c2 10 3 22 3 30c0 45 -30 64 -96 64c-49 0 -94 -13 -134 -33l-29 82c45 23 111 43 175 43c113 0 186 -44 186 -144z
M368 227c-28 15 -68 26 -121 26c-66 0 -112 -33 -115 -93c-3 -47 26 -82 91 -82c53 0 101 31 130 64zM509 720c0 -72 -54 -125 -126 -125s-126 53 -126 125s54 126 126 126s126 -54 126 -126zM444 720c0 36 -26 62 -61 62s-61 -26 -61 -62s26 -62 61 -62s61 26 61 62z" />
    <glyph glyph-name="ccedilla" unicode="&#xe7;" horiz-adv-x="518" 
d="M191 -3c-98 27 -155 122 -145 251c13 183 133 288 263 288c100 0 151 -49 185 -102l-76 -69c-25 39 -60 73 -117 73c-83 0 -144 -79 -151 -195c-7 -95 35 -156 117 -156c42 0 78 20 117 56l55 -70c-56 -55 -117 -84 -185 -84c-6 0 -11 0 -17 1l-15 -36c11 5 24 9 42 9
c42 0 71 -24 68 -70c-4 -55 -50 -86 -117 -86c-57 0 -102 20 -136 45l27 33c28 -20 59 -32 97 -32c33 0 56 11 57 36c2 19 -9 30 -30 30c-15 0 -26 -4 -38 -11l-34 14z" />
    <glyph glyph-name="eacute" unicode="&#xe9;" horiz-adv-x="545" 
d="M491 324c0 -34 -5 -68 -13 -97h-333c-8 -91 44 -145 121 -145c43 0 79 17 118 41l45 -72c-54 -41 -110 -62 -177 -62c-136 0 -219 101 -206 256c13 180 122 291 255 291c126 0 190 -90 190 -212zM393 310c7 76 -25 133 -103 133c-70 0 -113 -56 -132 -133h235zM573 755
l-193 -160h-82l135 160h140z" />
    <glyph glyph-name="egrave" unicode="&#xe8;" horiz-adv-x="545" 
d="M491 324c0 -34 -5 -68 -13 -97h-333c-8 -91 44 -145 121 -145c43 0 79 17 118 41l45 -72c-54 -41 -110 -62 -177 -62c-136 0 -219 101 -206 256c13 180 122 291 255 291c126 0 190 -90 190 -212zM393 310c7 76 -25 133 -103 133c-70 0 -113 -56 -132 -133h235zM417 595
h-82l-137 160h140z" />
    <glyph glyph-name="ecircumflex" unicode="&#xea;" horiz-adv-x="545" 
d="M491 324c0 -34 -5 -68 -13 -97h-333c-8 -91 44 -145 121 -145c43 0 79 17 118 41l45 -72c-54 -41 -110 -62 -177 -62c-136 0 -219 101 -206 256c13 180 122 291 255 291c126 0 190 -90 190 -212zM393 310c7 76 -25 133 -103 133c-70 0 -113 -56 -132 -133h235zM540 585
h-79l-80 88l-110 -88h-85l145 160h120z" />
    <glyph glyph-name="edieresis" unicode="&#xeb;" horiz-adv-x="545" 
d="M491 324c0 -34 -5 -68 -13 -97h-333c-8 -91 44 -145 121 -145c43 0 79 17 118 41l45 -72c-54 -41 -110 -62 -177 -62c-136 0 -219 101 -206 256c13 180 122 291 255 291c126 0 190 -90 190 -212zM393 310c7 76 -25 133 -103 133c-70 0 -113 -56 -132 -133h235zM540 657
c0 -36 -31 -67 -67 -67c-37 0 -68 31 -68 67c0 37 31 68 68 68c36 0 67 -31 67 -68zM345 657c0 -36 -31 -67 -67 -67c-37 0 -68 31 -68 67c0 37 31 68 68 68c36 0 67 -31 67 -68z" />
    <glyph glyph-name="iacute" unicode="&#xed;" horiz-adv-x="265" 
d="M230 525l-92 -525h-103l92 525h103zM413 755l-193 -160h-82l135 160h140z" />
    <glyph glyph-name="igrave" unicode="&#xec;" horiz-adv-x="265" 
d="M230 525l-92 -525h-103l92 525h103zM242 595h-82l-137 160h140z" />
    <glyph glyph-name="icircumflex" unicode="&#xee;" horiz-adv-x="265" 
d="M230 525l-92 -525h-103l92 525h103zM367 580h-79l-80 88l-110 -88h-85l145 160h120z" />
    <glyph glyph-name="idieresis" unicode="&#xef;" horiz-adv-x="265" 
d="M230 525l-92 -525h-103l92 525h103zM367 652c0 -36 -31 -67 -67 -67c-37 0 -68 31 -68 67c0 37 31 68 68 68c36 0 67 -31 67 -68zM172 652c0 -36 -31 -67 -67 -67c-37 0 -68 31 -68 67c0 37 31 68 68 68c36 0 67 -31 67 -68z" />
    <glyph glyph-name="ntilde" unicode="&#xf1;" 
d="M508 373c0 -20 -3 -44 -7 -67l-54 -306h-103l51 293c3 18 5 36 5 51c0 66 -24 97 -85 97c-64 0 -114 -50 -132 -149l-51 -292h-103l93 525h103l-8 -45c29 30 70 56 130 56c103 0 161 -56 161 -163zM550 728c-16 -93 -59 -136 -119 -136c-67 0 -116 58 -156 58
c-22 0 -37 -14 -49 -55h-71c17 92 59 136 119 136c67 0 117 -58 157 -58c22 0 36 14 48 55h71z" />
    <glyph glyph-name="oacute" unicode="&#xf3;" 
d="M519 278c-12 -180 -135 -289 -263 -289c-136 0 -222 107 -210 257c12 180 136 290 261 290c139 0 225 -108 212 -258zM416 282c6 91 -35 156 -118 156c-81 0 -142 -82 -148 -196c-6 -91 35 -155 115 -155c83 0 145 85 151 195zM576 755l-193 -160h-82l135 160h140z" />
    <glyph glyph-name="ograve" unicode="&#xf2;" 
d="M519 278c-12 -180 -135 -289 -263 -289c-136 0 -222 107 -210 257c12 180 136 290 261 290c139 0 225 -108 212 -258zM416 282c6 91 -35 156 -118 156c-81 0 -142 -82 -148 -196c-6 -91 35 -155 115 -155c83 0 145 85 151 195zM420 595h-82l-137 160h140z" />
    <glyph glyph-name="ocircumflex" unicode="&#xf4;" 
d="M519 278c-12 -180 -135 -289 -263 -289c-136 0 -222 107 -210 257c12 180 136 290 261 290c139 0 225 -108 212 -258zM416 282c6 91 -35 156 -118 156c-81 0 -142 -82 -148 -196c-6 -91 35 -155 115 -155c83 0 145 85 151 195zM540 585h-79l-80 88l-110 -88h-85l145 160
h120z" />
    <glyph glyph-name="odieresis" unicode="&#xf6;" 
d="M519 278c-12 -180 -135 -289 -263 -289c-136 0 -222 107 -210 257c12 180 136 290 261 290c139 0 225 -108 212 -258zM416 282c6 91 -35 156 -118 156c-81 0 -142 -82 -148 -196c-6 -91 35 -155 115 -155c83 0 145 85 151 195zM540 652c0 -36 -31 -67 -67 -67
c-37 0 -68 31 -68 67c0 37 31 68 68 68c36 0 67 -31 67 -68zM345 652c0 -36 -31 -67 -67 -67c-37 0 -68 31 -68 67c0 37 31 68 68 68c36 0 67 -31 67 -68z" />
    <glyph glyph-name="otilde" unicode="&#xf5;" 
d="M519 278c-12 -180 -135 -289 -263 -289c-136 0 -222 107 -210 257c12 180 136 290 261 290c139 0 225 -108 212 -258zM416 282c6 91 -35 156 -118 156c-81 0 -142 -82 -148 -196c-6 -91 35 -155 115 -155c83 0 145 85 151 195zM574 728c-16 -93 -59 -136 -119 -136
c-67 0 -116 58 -156 58c-22 0 -37 -14 -49 -55h-71c17 92 59 136 119 136c67 0 117 -58 157 -58c22 0 36 14 48 55h71z" />
    <glyph glyph-name="uacute" unicode="&#xfa;" 
d="M57 152c0 20 3 44 7 67l54 306h103l-51 -293c-3 -18 -5 -36 -5 -51c0 -66 24 -97 85 -97c64 0 115 49 132 149l51 292h103l-93 -525h-103l8 45c-29 -30 -70 -56 -130 -56c-103 0 -161 56 -161 163zM555 755l-193 -160h-82l135 160h140z" />
    <glyph glyph-name="ugrave" unicode="&#xf9;" 
d="M57 152c0 20 3 44 7 67l54 306h103l-51 -293c-3 -18 -5 -36 -5 -51c0 -66 24 -97 85 -97c64 0 115 49 132 149l51 292h103l-93 -525h-103l8 45c-29 -30 -70 -56 -130 -56c-103 0 -161 56 -161 163zM401 595h-82l-137 160h140z" />
    <glyph glyph-name="ucircumflex" unicode="&#xfb;" 
d="M57 152c0 20 3 44 7 67l54 306h103l-51 -293c-3 -18 -5 -36 -5 -51c0 -66 24 -97 85 -97c64 0 115 49 132 149l51 292h103l-93 -525h-103l8 45c-29 -30 -70 -56 -130 -56c-103 0 -161 56 -161 163zM521 595h-79l-80 88l-110 -88h-85l145 160h120z" />
    <glyph glyph-name="udieresis" unicode="&#xfc;" 
d="M57 152c0 20 3 44 7 67l54 306h103l-51 -293c-3 -18 -5 -36 -5 -51c0 -66 24 -97 85 -97c64 0 115 49 132 149l51 292h103l-93 -525h-103l8 45c-29 -30 -70 -56 -130 -56c-103 0 -161 56 -161 163zM521 662c0 -36 -31 -67 -67 -67c-37 0 -68 31 -68 67c0 37 31 68 68 68
c36 0 67 -31 67 -68zM326 662c0 -36 -31 -67 -67 -67c-37 0 -68 31 -68 67c0 37 31 68 68 68c36 0 67 -31 67 -68z" />
    <glyph glyph-name="degree" unicode="&#xb0;" horiz-adv-x="486" 
d="M483 514c0 -113 -86 -199 -198 -199c-111 0 -198 86 -198 199c0 110 87 197 198 197c112 0 198 -87 198 -197zM393 514c0 59 -47 108 -108 108c-60 0 -108 -49 -108 -108c0 -62 48 -110 108 -110c61 0 108 48 108 110z" />
    <glyph glyph-name="registered" unicode="&#xae;" horiz-adv-x="836" 
d="M783 350c0 -205 -156 -361 -361 -361s-361 156 -361 361s156 361 361 361s361 -156 361 -361zM725 350c0 172 -131 303 -303 303s-303 -131 -303 -303s131 -303 303 -303s303 131 303 303zM587 435c0 -62 -33 -101 -84 -116l81 -159h-79l-77 152h-76v-152h-67v394h173
c70 0 129 -37 129 -119zM519 433c0 37 -27 56 -63 56h-104v-112h104c36 0 63 17 63 56z" />
    <glyph glyph-name="copyright" unicode="&#xa9;" horiz-adv-x="836" 
d="M783 350c0 -205 -156 -361 -361 -361s-361 156 -361 361s156 361 361 361s361 -156 361 -361zM725 350c0 172 -131 303 -303 303s-303 -131 -303 -303s131 -303 303 -303s303 131 303 303zM564 229c-31 -53 -79 -81 -139 -81c-101 0 -167 84 -167 204s66 203 167 203
c65 0 108 -26 137 -78l-59 -37c-21 33 -40 48 -78 48c-65 0 -98 -53 -98 -136s33 -137 98 -137c38 0 61 17 83 52z" />
    <glyph glyph-name="trademark" unicode="&#x2122;" horiz-adv-x="770" 
d="M376 634h-112l-58 -328h-67l58 328h-112l11 66h291zM736 306h-64l36 208c2 14 6 31 8 45c-7 -12 -15 -26 -23 -39l-137 -226l-57 226c-3 13 -6 27 -9 38c-1 -14 -5 -31 -7 -44l-36 -208h-64l69 394h67l53 -204c4 -16 8 -39 12 -54c9 16 19 36 30 54l123 204h68z" />
    <glyph glyph-name="notequal" unicode="&#x2260;" horiz-adv-x="760" 
d="M740 346l-167 -126c-7 -4 -14 -4 -17 -2c-7 5 -11 10 -7 18l23 66h-147v-149l65 23c9 4 14 0 19 -7c2 -4 2 -10 -2 -17l-126 -167l-126 167c-4 7 -5 13 -3 17c6 7 11 11 20 7l65 -23v149h-149l23 -66c4 -8 0 -13 -7 -18c-3 -2 -10 -2 -17 2l-167 126l167 126
c7 4 14 5 17 3c7 -6 11 -11 7 -20l-23 -65h149v157l-65 -23c-9 -4 -14 0 -20 7c-2 3 -1 10 3 17l126 167l126 -167c4 -7 4 -14 2 -17c-5 -7 -10 -11 -19 -7l-65 23v-157h147l-23 65c-4 9 0 14 7 20c3 2 10 1 17 -3z" />
    <glyph glyph-name="infinity" unicode="&#x221e;" horiz-adv-x="760" 
d="M740 346l-167 -126c-7 -4 -14 -4 -17 -2c-7 5 -11 10 -7 18l23 66h-147v-149l65 23c9 4 14 0 19 -7c2 -4 2 -10 -2 -17l-126 -167l-126 167c-4 7 -5 13 -3 17c6 7 11 11 20 7l65 -23v149h-149l23 -66c4 -8 0 -13 -7 -18c-3 -2 -10 -2 -17 2l-167 126l167 126
c7 4 14 5 17 3c7 -6 11 -11 7 -20l-23 -65h149v157l-65 -23c-9 -4 -14 0 -20 7c-2 3 -1 10 3 17l126 167l126 -167c4 -7 4 -14 2 -17c-5 -7 -10 -11 -19 -7l-65 23v-157h147l-23 65c-4 9 0 14 7 20c3 2 10 1 17 -3z" />
    <glyph glyph-name="plusminus" unicode="&#xb1;" horiz-adv-x="760" 
d="M740 346l-167 -126c-7 -4 -14 -4 -17 -2c-7 5 -11 10 -7 18l23 66h-147v-149l65 23c9 4 14 0 19 -7c2 -4 2 -10 -2 -17l-126 -167l-126 167c-4 7 -5 13 -3 17c6 7 11 11 20 7l65 -23v149h-149l23 -66c4 -8 0 -13 -7 -18c-3 -2 -10 -2 -17 2l-167 126l167 126
c7 4 14 5 17 3c7 -6 11 -11 7 -20l-23 -65h149v157l-65 -23c-9 -4 -14 0 -20 7c-2 3 -1 10 3 17l126 167l126 -167c4 -7 4 -14 2 -17c-5 -7 -10 -11 -19 -7l-65 23v-157h147l-23 65c-4 9 0 14 7 20c3 2 10 1 17 -3z" />
    <glyph glyph-name="lessequal" unicode="&#x2264;" horiz-adv-x="760" 
d="M740 346l-167 -126c-7 -4 -14 -4 -17 -2c-7 5 -11 10 -7 18l23 66h-147v-149l65 23c9 4 14 0 19 -7c2 -4 2 -10 -2 -17l-126 -167l-126 167c-4 7 -5 13 -3 17c6 7 11 11 20 7l65 -23v149h-149l23 -66c4 -8 0 -13 -7 -18c-3 -2 -10 -2 -17 2l-167 126l167 126
c7 4 14 5 17 3c7 -6 11 -11 7 -20l-23 -65h149v157l-65 -23c-9 -4 -14 0 -20 7c-2 3 -1 10 3 17l126 167l126 -167c4 -7 4 -14 2 -17c-5 -7 -10 -11 -19 -7l-65 23v-157h147l-23 65c-4 9 0 14 7 20c3 2 10 1 17 -3z" />
    <glyph glyph-name="greaterequal" unicode="&#x2265;" horiz-adv-x="760" 
d="M740 346l-167 -126c-7 -4 -14 -4 -17 -2c-7 5 -11 10 -7 18l23 66h-147v-149l65 23c9 4 14 0 19 -7c2 -4 2 -10 -2 -17l-126 -167l-126 167c-4 7 -5 13 -3 17c6 7 11 11 20 7l65 -23v149h-149l23 -66c4 -8 0 -13 -7 -18c-3 -2 -10 -2 -17 2l-167 126l167 126
c7 4 14 5 17 3c7 -6 11 -11 7 -20l-23 -65h149v157l-65 -23c-9 -4 -14 0 -20 7c-2 3 -1 10 3 17l126 167l126 -167c4 -7 4 -14 2 -17c-5 -7 -10 -11 -19 -7l-65 23v-157h147l-23 65c-4 9 0 14 7 20c3 2 10 1 17 -3z" />
    <glyph glyph-name="mu" unicode="&#xb5;" horiz-adv-x="800" 
d="M780 346l-199 -140c-9 -5 -17 -5 -21 -2c-9 6 -13 13 -9 25l21 67h-344l21 -67c4 -12 0 -19 -9 -25c-4 -3 -13 -3 -22 2l-198 140l199 139c9 6 17 6 21 3c9 -6 13 -13 9 -24l-21 -68h344l-21 68c-4 11 0 18 9 24c4 3 12 3 21 -3z" />
    <glyph glyph-name="partialdiff" unicode="&#x2202;" horiz-adv-x="410" 
d="M347 205c3 -4 3 -12 -3 -21l-139 -199l-140 199c-5 9 -5 17 -2 21c6 9 13 13 25 9l67 -21v314l-67 -21c-12 -4 -19 0 -25 9c-3 4 -3 13 2 22l140 198l139 -199c6 -9 6 -17 3 -21c-6 -9 -13 -13 -24 -9l-68 21v-314l68 21c11 4 18 0 24 -9z" />
    <glyph glyph-name="summation" unicode="&#x2211;" horiz-adv-x="760" 
d="M739 348l-167 -127c-7 -5 -13 -5 -17 -3c-7 5 -9 12 -6 24l25 62h-152v-151l66 24c10 4 16 2 20 -6c2 -4 2 -11 -3 -19l-124 -167l-126 167c-4 8 -4 15 -3 19c4 7 11 10 21 6l66 -24v151h-154l25 -63c4 -10 1 -18 -6 -23c-4 -2 -10 -2 -17 3l-167 127l167 125
c8 5 13 5 17 3c8 -5 9 -12 6 -22l-25 -64h154v157l-66 -24c-9 -4 -17 -1 -21 6c-1 4 -1 11 3 19l126 167l124 -167c5 -8 5 -15 3 -19c-4 -8 -10 -10 -20 -6l-66 24v-157h152l-25 64c-3 10 -2 17 6 22c4 2 10 2 17 -3z" />
    <glyph glyph-name="product" unicode="&#x220f;" horiz-adv-x="760" 
d="M739 348l-167 -127c-7 -5 -13 -5 -17 -3c-7 5 -9 12 -6 24l25 62h-152v-151l66 24c10 4 16 2 20 -6c2 -4 2 -11 -3 -19l-124 -167l-126 167c-4 8 -4 15 -3 19c4 7 11 10 21 6l66 -24v151h-154l25 -63c4 -10 1 -18 -6 -23c-4 -2 -10 -2 -17 3l-167 127l167 125
c8 5 13 5 17 3c8 -5 9 -12 6 -22l-25 -64h154v157l-66 -24c-9 -4 -17 -1 -21 6c-1 4 -1 11 3 19l126 167l124 -167c5 -8 5 -15 3 -19c-4 -8 -10 -10 -20 -6l-66 24v-157h152l-25 64c-3 10 -2 17 6 22c4 2 10 2 17 -3z" />
    <glyph glyph-name="pi" unicode="&#x3c0;" horiz-adv-x="836" 
d="M783 350c0 -205 -156 -361 -361 -361s-361 156 -361 361s156 361 361 361s361 -156 361 -361zM725 350c0 172 -131 303 -303 303s-303 -131 -303 -303s131 -303 303 -303s303 131 303 303zM598 423c0 -83 -55 -126 -133 -126h-94v-144h-67v394h165c69 0 129 -43 129 -124
zM530 423c0 39 -25 59 -62 59h-97v-121h97c41 0 62 23 62 62z" />
    <glyph glyph-name="integral" unicode="&#x222b;" 
d="M285 536c64 0 111 -26 141 -61l8 50h103l-93 -525h-102l8 44c-35 -34 -78 -55 -130 -55c-99 0 -174 75 -174 219c0 202 111 328 239 328zM151 214c0 -84 38 -130 101 -130c53 0 99 41 117 59l40 228c-18 29 -67 70 -120 70c-89 0 -138 -112 -138 -227z" />
    <glyph glyph-name="Omega" unicode="&#x3a9;" horiz-adv-x="410" 
d="M347 495c-6 -9 -13 -13 -24 -9l-68 21v-507h-100v507l-67 -21c-12 -4 -19 0 -25 9c-3 4 -3 13 2 22l140 198l139 -199c6 -9 6 -17 3 -21z" />
    <glyph glyph-name="logicalnot" unicode="&#xac;" horiz-adv-x="650" 
d="M630 346l-199 -140c-9 -5 -17 -5 -21 -2c-9 6 -13 13 -9 25l21 67h-377v100h377l-21 68c-4 11 0 18 9 24c4 3 12 3 21 -3z" />
    <glyph glyph-name="radical" unicode="&#x221a;" horiz-adv-x="620" 
d="M654 700l-386 -700h-115l-102 340h107l26 -96c10 -36 33 -114 38 -145c15 31 45 94 74 149l243 452h115z" />
    <glyph glyph-name="approxequal" unicode="&#x2248;" horiz-adv-x="410" 
d="M347 205c3 -4 3 -12 -3 -21l-139 -199l-140 199c-5 9 -5 17 -2 21c6 9 13 13 25 9l67 -21v507h100v-506l68 20c11 4 18 0 24 -9z" />
    <glyph glyph-name="Delta" unicode="&#x394;" horiz-adv-x="650" 
d="M605 296h-377l21 -67c4 -12 0 -19 -9 -25c-4 -3 -13 -3 -22 2l-198 140l199 139c9 6 17 6 21 3c9 -6 13 -13 9 -24l-21 -68h377v-100z" />
    <glyph glyph-name="nbspace" unicode="&#xa0;" horiz-adv-x="135" 
 />
    <glyph glyph-name="Agrave" unicode="&#xc0;" horiz-adv-x="707" 
d="M613 0h-110l-29 167h-272l-87 -167h-114l376 700h106zM460 260l-32 187c-8 44 -16 96 -18 124c-12 -27 -37 -79 -62 -125l-100 -186h212zM488 745h-82l-137 160h140z" />
    <glyph glyph-name="Atilde" unicode="&#xc3;" horiz-adv-x="707" 
d="M613 0h-110l-29 167h-272l-87 -167h-114l376 700h106zM460 260l-32 187c-8 44 -16 96 -18 124c-12 -27 -37 -79 -62 -125l-100 -186h212zM645 878c-16 -93 -59 -136 -119 -136c-67 0 -116 58 -156 58c-22 0 -37 -14 -49 -55h-71c17 92 59 136 119 136
c67 0 117 -58 157 -58c22 0 36 14 48 55h71z" />
    <glyph glyph-name="Otilde" unicode="&#xd5;" horiz-adv-x="707" 
d="M666 330c-37 -206 -171 -341 -338 -341c-191 0 -296 155 -255 381c38 209 173 341 343 341c188 0 290 -158 250 -381zM559 336c29 163 -39 274 -159 274c-105 0 -193 -95 -220 -246c-29 -161 38 -274 155 -274c111 0 197 94 224 246zM740 878c-16 -93 -59 -136 -119 -136
c-67 0 -116 58 -156 58c-22 0 -37 -14 -49 -55h-71c17 92 59 136 119 136c67 0 117 -58 157 -58c22 0 36 14 48 55h71z" />
    <glyph glyph-name="divide" unicode="&#xf7;" horiz-adv-x="760" 
d="M740 346l-167 -126c-7 -4 -14 -4 -17 -2c-7 5 -11 10 -7 18l23 66h-147v-149l65 23c9 4 14 0 19 -7c2 -4 2 -10 -2 -17l-126 -167l-126 167c-4 7 -5 13 -3 17c6 7 11 11 20 7l65 -23v149h-149l23 -66c4 -8 0 -13 -7 -18c-3 -2 -10 -2 -17 2l-167 126l167 126
c7 4 14 5 17 3c7 -6 11 -11 7 -20l-23 -65h149v157l-65 -23c-9 -4 -14 0 -20 7c-2 3 -1 10 3 17l126 167l126 -167c4 -7 4 -14 2 -17c-5 -7 -10 -11 -19 -7l-65 23v-157h147l-23 65c-4 9 0 14 7 20c3 2 10 1 17 -3z" />
    <glyph glyph-name="lozenge" unicode="&#x25ca;" horiz-adv-x="760" 
d="M740 346l-167 -126c-7 -4 -14 -4 -17 -2c-7 5 -11 10 -7 18l23 66h-147v-149l65 23c9 4 14 0 19 -7c2 -4 2 -10 -2 -17l-126 -167l-126 167c-4 7 -5 13 -3 17c6 7 11 11 20 7l65 -23v149h-149l23 -66c4 -8 0 -13 -7 -18c-3 -2 -10 -2 -17 2l-167 126l167 126
c7 4 14 5 17 3c7 -6 11 -11 7 -20l-23 -65h149v157l-65 -23c-9 -4 -14 0 -20 7c-2 3 -1 10 3 17l126 167l126 -167c4 -7 4 -14 2 -17c-5 -7 -10 -11 -19 -7l-65 23v-157h147l-23 65c-4 9 0 14 7 20c3 2 10 1 17 -3z" />
    <glyph glyph-name="ydieresis" unicode="&#xff;" horiz-adv-x="551" 
d="M564 525l-378 -710h-110l103 188l-100 522h109l51 -317c2 -20 10 -72 11 -84c4 13 29 63 38 84l166 317h110zM508 652c0 -36 -31 -67 -67 -67c-37 0 -68 31 -68 67c0 37 31 68 68 68c36 0 67 -31 67 -68zM313 652c0 -36 -31 -67 -67 -67c-37 0 -68 31 -68 67
c0 37 31 68 68 68c36 0 67 -31 67 -68z" />
    <glyph glyph-name="Ydieresis" unicode="&#x178;" horiz-adv-x="685" 
d="M722 700l-325 -424l-48 -276h-105l49 277l-174 423h117l72 -183c18 -47 42 -110 53 -144c23 33 65 96 101 144l138 183h122zM591 802c0 -36 -31 -67 -67 -67c-37 0 -68 31 -68 67c0 37 31 68 68 68c36 0 67 -31 67 -68zM396 802c0 -36 -31 -67 -67 -67
c-37 0 -68 31 -68 67c0 37 31 68 68 68c36 0 67 -31 67 -68z" />
    <glyph glyph-name="Euro" unicode="&#x20ac;" horiz-adv-x="610" 
d="M175 390c-5 -24 -9 -49 -11 -76h251l-15 -82h-234c14 -91 66 -141 146 -141c63 0 109 40 154 91l75 -65c-63 -78 -138 -128 -239 -128c-153 0 -241 121 -241 278c0 265 145 444 331 444c117 0 180 -61 215 -160l-94 -44c-27 64 -62 102 -133 102
c-69 0 -137 -51 -178 -137h241l-15 -82h-253z" />
    <glyph glyph-name="Acircumflex" unicode="&#xc2;" horiz-adv-x="707" 
d="M613 0h-110l-29 167h-272l-87 -167h-114l376 700h106zM460 260l-32 187c-8 44 -16 96 -18 124c-12 -27 -37 -79 -62 -125l-100 -186h212zM599 735h-79l-80 88l-110 -88h-85l145 160h120z" />
    <glyph glyph-name="Ecircumflex" unicode="&#xca;" horiz-adv-x="611" 
d="M507 0h-462l123 700h447l-18 -102h-342l-30 -173h197l-18 -102h-197l-39 -221h357zM572 745h-79l-80 88l-110 -88h-85l145 160h120z" />
    <glyph glyph-name="Aacute" unicode="&#xc1;" horiz-adv-x="707" 
d="M613 0h-110l-29 167h-272l-87 -167h-114l376 700h106zM460 260l-32 187c-8 44 -16 96 -18 124c-12 -27 -37 -79 -62 -125l-100 -186h212zM641 905l-193 -160h-82l135 160h140z" />
    <glyph glyph-name="Edieresis" unicode="&#xcb;" horiz-adv-x="611" 
d="M507 0h-462l123 700h447l-18 -102h-342l-30 -173h197l-18 -102h-197l-39 -221h357zM569 812c0 -36 -31 -67 -67 -67c-37 0 -68 31 -68 67c0 37 31 68 68 68c36 0 67 -31 67 -68zM374 812c0 -36 -31 -67 -67 -67c-37 0 -68 31 -68 67c0 37 31 68 68 68c36 0 67 -31 67 -68
z" />
    <glyph glyph-name="Egrave" unicode="&#xc8;" horiz-adv-x="611" 
d="M507 0h-462l123 700h447l-18 -102h-342l-30 -173h197l-18 -102h-197l-39 -221h357zM446 745h-82l-137 160h140z" />
    <glyph glyph-name="Iacute" unicode="&#xcd;" horiz-adv-x="297" 
d="M155 0h-105l124 700h105zM459 905l-193 -160h-82l135 160h140z" />
    <glyph glyph-name="Icircumflex" unicode="&#xce;" horiz-adv-x="297" 
d="M155 0h-105l124 700h105zM404 738h-79l-80 88l-110 -88h-85l145 160h120z" />
    <glyph glyph-name="Idieresis" unicode="&#xcf;" horiz-adv-x="297" 
d="M155 0h-105l124 700h105zM408 811c0 -36 -31 -67 -67 -67c-37 0 -68 31 -68 67c0 37 31 68 68 68c36 0 67 -31 67 -68zM213 811c0 -36 -31 -67 -67 -67c-37 0 -68 31 -68 67c0 37 31 68 68 68c36 0 67 -31 67 -68z" />
    <glyph glyph-name="Igrave" unicode="&#xcc;" horiz-adv-x="297" 
d="M155 0h-105l124 700h105zM274 745h-82l-137 160h140z" />
    <glyph glyph-name="Oacute" unicode="&#xd3;" horiz-adv-x="707" 
d="M666 330c-37 -206 -171 -341 -338 -341c-191 0 -296 155 -255 381c38 209 173 341 343 341c188 0 290 -158 250 -381zM559 336c29 163 -39 274 -159 274c-105 0 -193 -95 -220 -246c-29 -161 38 -274 155 -274c111 0 197 94 224 246zM728 905l-193 -160h-82l135 160h140z
" />
    <glyph glyph-name="Ocircumflex" unicode="&#xd4;" horiz-adv-x="707" 
d="M666 330c-37 -206 -171 -341 -338 -341c-191 0 -296 155 -255 381c38 209 173 341 343 341c188 0 290 -158 250 -381zM559 336c29 163 -39 274 -159 274c-105 0 -193 -95 -220 -246c-29 -161 38 -274 155 -274c111 0 197 94 224 246zM703 740h-79l-80 88l-110 -88h-85
l145 160h120z" />
    <glyph glyph-name="apple" unicode="&#xf8ff;" horiz-adv-x="760" 
d="M740 346l-167 -126c-7 -4 -14 -4 -17 -2c-7 5 -11 10 -7 18l23 66h-147v-149l65 23c9 4 14 0 19 -7c2 -4 2 -10 -2 -17l-126 -167l-126 167c-4 7 -5 13 -3 17c6 7 11 11 20 7l65 -23v149h-149l23 -66c4 -8 0 -13 -7 -18c-3 -2 -10 -2 -17 2l-167 126l167 126
c7 4 14 5 17 3c7 -6 11 -11 7 -20l-23 -65h149v157l-65 -23c-9 -4 -14 0 -20 7c-2 3 -1 10 3 17l126 167l126 -167c4 -7 4 -14 2 -17c-5 -7 -10 -11 -19 -7l-65 23v-157h147l-23 65c-4 9 0 14 7 20c3 2 10 1 17 -3z" />
    <glyph glyph-name="Ograve" unicode="&#xd2;" horiz-adv-x="707" 
d="M666 330c-37 -206 -171 -341 -338 -341c-191 0 -296 155 -255 381c38 209 173 341 343 341c188 0 290 -158 250 -381zM559 336c29 163 -39 274 -159 274c-105 0 -193 -95 -220 -246c-29 -161 38 -274 155 -274c111 0 197 94 224 246zM577 745h-82l-137 160h140z" />
    <glyph glyph-name="Uacute" unicode="&#xda;" horiz-adv-x="700" 
d="M692 700l-74 -417c-33 -187 -116 -294 -291 -294c-152 0 -242 83 -242 233c1 23 4 53 9 82l70 396h105l-70 -396c-4 -24 -7 -48 -7 -68c0 -88 43 -145 144 -145c102 0 156 67 179 200l72 409h105zM631 890l-193 -160h-82l135 160h140z" />
    <glyph glyph-name="Ucircumflex" unicode="&#xdb;" horiz-adv-x="700" 
d="M692 700l-74 -417c-33 -187 -116 -294 -291 -294c-152 0 -242 83 -242 233c1 23 4 53 9 82l70 396h105l-70 -396c-4 -24 -7 -48 -7 -68c0 -88 43 -145 144 -145c102 0 156 67 179 200l72 409h105zM612 745h-79l-80 88l-110 -88h-85l145 160h120z" />
    <glyph glyph-name="Ugrave" unicode="&#xd9;" horiz-adv-x="700" 
d="M692 700l-74 -417c-33 -187 -116 -294 -291 -294c-152 0 -242 83 -242 233c1 23 4 53 9 82l70 396h105l-70 -396c-4 -24 -7 -48 -7 -68c0 -88 43 -145 144 -145c102 0 156 67 179 200l72 409h105zM494 730h-82l-137 160h140z" />
    </font>
</defs>
</svg>
